<?xml version="1.0" standalone="no"?>
<!DOCTYPE svg PUBLIC "-//W3C//DTD SVG 1.1//EN" "http://www.w3.org/Graphics/SVG/1.1/DTD/svg11.dtd" >
<svg xmlns="http://www.w3.org/2000/svg">
<metadata></metadata>
<defs>
<font id="speak-boldregular" horiz-adv-x="1017" >
<font-face units-per-em="2048" ascent="1540" descent="-508" />
<missing-glyph horiz-adv-x="647" />
<glyph horiz-adv-x="2048" />
<glyph horiz-adv-x="2048" />
<glyph unicode="&#xd;" horiz-adv-x="647" />
<glyph unicode=" "  horiz-adv-x="647" />
<glyph unicode="&#x09;" horiz-adv-x="647" />
<glyph unicode="&#xa0;" horiz-adv-x="647" />
<glyph unicode="!" horiz-adv-x="522" d="M195 55v68q0 29 19 48t48 19t48.5 -19t19.5 -48v-68q0 -29 -19.5 -48t-48.5 -19t-48 19.5t-19 47.5zM195 367v882q0 29 19 48.5t48 19.5t48.5 -19.5t19.5 -48.5v-882q0 -29 -19.5 -48.5t-48.5 -19.5t-48 19.5t-19 48.5z" />
<glyph unicode="&#x22;" horiz-adv-x="692" d="M154 911v338q0 29 19.5 48.5t47.5 19.5q29 0 48.5 -19.5t19.5 -48.5v-338q0 -29 -19.5 -48t-48.5 -19t-48 19.5t-19 47.5zM403 911v338q0 29 19.5 48.5t48.5 19.5t48.5 -19.5t19.5 -48.5v-338q0 -29 -19.5 -48t-48.5 -19t-48.5 19.5t-19.5 47.5z" />
<glyph unicode="#" horiz-adv-x="1210" d="M195 367q0 35 19 50t48 15h105l26 184h-88q-29 0 -48 17.5t-19 48.5q0 29 19 47.5t48 18.5h105l36 253q4 25 21.5 40.5t44.5 15.5q68 0 68 -64v-12l-31 -233h156l36 256q6 53 62 53q31 0 50 -15.5t19 -48.5v-12l-32 -233h110q31 0 49.5 -18.5t18.5 -47.5 q0 -31 -18.5 -48.5t-49.5 -17.5h-129l-26 -184h112q29 0 48.5 -15.5t19.5 -49.5q0 -29 -19.5 -47.5t-48.5 -18.5h-129l-37 -248q-6 -53 -65 -53q-68 0 -68 66v12l33 223h-158l-32 -248q-4 -20 -19.5 -36.5t-48.5 -16.5q-29 0 -47.5 17.5t-18.5 48.5v12l33 223h-88 q-29 0 -48 18.5t-19 47.5zM502 432h157l27 184h-156z" />
<glyph unicode="$" horiz-adv-x="1003" d="M113 176q0 29 19.5 46.5t45.5 17.5q4 0 17.5 -3.5t29.5 -15.5q18 -14 43 -31.5t56.5 -33t70.5 -26.5t86 -11q127 0 200 65.5t73 173.5q0 72 -45 121t-113 87t-145.5 73t-145 82t-113 112.5t-45.5 163.5q0 70 26 127.5t70 100.5t101 68.5t123 31.5v41q0 31 18.5 49.5 t49.5 18.5q29 0 48 -18.5t19 -49.5v-43q78 -16 130 -43t99 -61q29 -20 29 -58q0 -29 -19.5 -47t-45.5 -18q-10 0 -20.5 2t-20.5 12q-35 29 -94.5 58.5t-135.5 29.5q-47 0 -90 -14.5t-75.5 -41t-52 -63.5t-19.5 -82q0 -74 45 -121t112.5 -83.5t145.5 -71.5t145.5 -81 t112.5 -112.5t45 -169.5q0 -139 -78 -234t-213 -124v-55q0 -29 -19.5 -48.5t-47.5 -19.5q-31 0 -49.5 19.5t-18.5 48.5v43q-98 0 -176 37.5t-150 93.5q-29 23 -28 57z" />
<glyph unicode="%" horiz-adv-x="1562" d="M88 965q0 164 68.5 261t185.5 97t186.5 -98.5t69.5 -259.5q0 -166 -68.5 -259.5t-187.5 -93.5q-117 0 -185.5 93.5t-68.5 259.5zM193 965q0 -117 39.5 -185.5t109.5 -68.5t111 68.5t41 185.5q0 51 -9.5 98t-28 83t-47 57.5t-67.5 21.5q-68 0 -108.5 -72t-40.5 -188z M305 43q0 16 5 28.5t9 18.5l830 1213q16 27 53 26q20 0 32.5 -14.5t12.5 -28.5q0 -29 -14 -47l-830 -1212q-16 -27 -53 -27q-20 0 -32.5 14.5t-12.5 28.5zM938 346q0 164 68.5 261.5t185.5 97.5t186.5 -98.5t69.5 -260.5q0 -166 -68.5 -259t-187.5 -93q-117 0 -185.5 93 t-68.5 259zM1042 346q0 -117 40 -185.5t110 -68.5t110.5 68.5t40.5 185.5q0 51 -9 98.5t-27.5 83t-47 57t-67.5 21.5q-68 0 -109 -71.5t-41 -188.5z" />
<glyph unicode="&#x26;" horiz-adv-x="1519" d="M195 373q0 70 21.5 122t57 94t81.5 73.5t96 58.5q-20 23 -44 53.5t-45.5 66.5t-36 75.5t-14.5 82.5q0 68 24.5 126.5t66.5 101.5t99.5 66.5t125.5 23.5q66 0 123 -24.5t99 -66.5t66.5 -99.5t24.5 -120.5q0 -70 -22.5 -121t-60.5 -90t-88 -69t-103 -54l274 -332 q35 51 52.5 98t17.5 82q0 29 16 48.5t49 19.5q29 0 49.5 -19.5t20.5 -48.5q0 -53 -29 -130t-82 -154q43 -37 77 -58.5t61.5 -32t48 -12.5t34.5 -2q27 0 48.5 -14.5t21.5 -48.5q0 -29 -17.5 -48.5t-52.5 -19.5q-12 0 -41.5 3t-70.5 16.5t-91.5 41t-105.5 76.5 q-68 -63 -157 -106t-199 -43q-84 0 -157 29.5t-126 81t-82.5 122t-29.5 152.5zM334 373q0 -61 22.5 -108.5t58.5 -79t82 -49t93 -17.5q84 0 148.5 32.5t115.5 79.5l-315 385q-43 -20 -80 -42.5t-64.5 -51t-44 -64.5t-16.5 -85zM451 999q0 -47 40 -105.5t89 -117.5 q43 20 82.5 43t70.5 48.5t49.5 59.5t18.5 79q0 76 -44 128t-130 52q-88 0 -132 -52.5t-44 -134.5z" />
<glyph unicode="'" horiz-adv-x="440" d="M154 911v338q0 29 19.5 48.5t47.5 19.5q29 0 48.5 -19.5t19.5 -48.5v-338q0 -29 -19.5 -48t-48.5 -19t-48 19.5t-19 47.5z" />
<glyph unicode="(" horiz-adv-x="847" d="M195 532q0 221 50 379t113.5 260.5t120 153.5t68.5 61q18 12 37 13q29 0 49 -20.5t20 -49.5q0 -16 -9 -32.5t-28 -28.5l-22 -19q-20 -16 -52 -52t-68 -93t-67.5 -138t-52 -188.5t-20.5 -245.5q0 -129 19.5 -226t49 -168.5t65.5 -120t66.5 -77t53 -42t26.5 -15.5 q20 -10 28.5 -27.5t8.5 -33.5q0 -29 -18 -46.5t-47 -17.5q-16 0 -35 6q-2 0 -29.5 15.5t-67.5 49.5t-85 90t-84 141t-64.5 202t-25.5 270z" />
<glyph unicode=")" horiz-adv-x="847" d="M195 1329q0 29 20.5 49.5t48.5 20.5q18 0 37 -13q12 -10 68.5 -61t120 -153.5t113.5 -260t50 -379.5q0 -154 -25.5 -270.5t-64.5 -201.5t-84 -141t-85 -90t-67.5 -49.5t-29.5 -15.5q-19 -6 -35 -6q-29 0 -47 17.5t-18 46.5q0 16 8 33.5t28 27.5q4 2 27 15.5t53.5 42 t66.5 77t65.5 120t49 168.5t19.5 226q0 137 -20.5 245t-52 189t-67.5 138t-68 93t-54 52l-21 19q-18 12 -27 28.5t-9 32.5z" />
<glyph unicode="*" horiz-adv-x="882" d="M113 1067q0 29 18.5 47.5t46.5 18.5q12 0 23 -5l172 -69v184q0 29 18.5 48.5t48.5 19.5q29 0 47.5 -19.5t18.5 -48.5v-184l176 69q10 4 14 5h9q25 0 45 -19.5t20 -48.5q0 -23 -13.5 -39t-29.5 -22l-180 -68l119 -162q14 -20 14 -39q0 -29 -20.5 -47t-49.5 -18 q-14 0 -28.5 5t-24.5 21l-119 166l-119 -166q-18 -27 -53 -26q-29 0 -47 18.5t-18 46.5q0 6 3 17.5t11 21.5l119 162l-178 68q-18 8 -30.5 25.5t-12.5 37.5z" />
<glyph unicode="+" horiz-adv-x="1228" d="M184 483q0 29 19.5 47.5t48.5 18.5h295v295q0 29 19.5 48t47.5 19q29 0 48.5 -19.5t19.5 -47.5v-295h295q29 0 48 -18.5t19 -47.5t-19 -47t-48 -18h-295v-299q0 -29 -19.5 -48.5t-48.5 -19.5t-48 19.5t-19 48.5v299h-295q-29 0 -48.5 18.5t-19.5 46.5z" />
<glyph unicode="," horiz-adv-x="514" d="M119 -147q0 25 18 49q39 41 50.5 95t11.5 126q0 29 19.5 48t47.5 19q29 0 48.5 -19t19.5 -48v-10q0 -18 -2 -55.5t-12.5 -81.5t-30 -89t-53.5 -80q-20 -20 -52 -20q-29 0 -47 18.5t-18 47.5z" />
<glyph unicode="-" horiz-adv-x="980" d="M195 483q0 29 19 47.5t48 18.5h457q29 0 48 -18.5t19 -47.5t-19 -47t-48 -18h-457q-29 0 -48 18.5t-19 46.5z" />
<glyph unicode="." horiz-adv-x="440" d="M154 55v68q0 29 19.5 48t47.5 19q29 0 48.5 -19t19.5 -48v-68q0 -29 -19.5 -48t-48.5 -19t-48 19.5t-19 47.5z" />
<glyph unicode="/" horiz-adv-x="829" d="M92 -123q0 10 6 27l514 1362q8 16 22.5 28.5t41.5 12.5q29 0 45 -19.5t16 -42.5q0 -12 -4 -22l-514 -1368q-16 -41 -61 -41q-33 0 -49.5 19.5t-16.5 43.5z" />
<glyph unicode="0" horiz-adv-x="1327" d="M195 651q0 156 32.5 281t93 213t147.5 136t196 48t195.5 -48t148 -136t94.5 -214t33 -280q0 -158 -33 -280.5t-93.5 -207.5t-147 -130t-197.5 -45q-109 0 -196 45t-147.5 130t-93 208t-32.5 280zM334 651q0 -248 88 -390t242 -142q76 0 137 37t104 105.5t66.5 167.5 t23.5 222q0 115 -21.5 215.5t-64.5 174t-104.5 115.5t-140.5 42q-76 0 -137.5 -39t-104.5 -110.5t-65.5 -173t-22.5 -224.5z" />
<glyph unicode="1" horiz-adv-x="813" d="M205 1106q0 39 28 57l220 144q16 10 36 10q29 0 49.5 -19.5t20.5 -48.5v-1181q0 -29 -19.5 -48.5t-47.5 -19.5q-29 0 -48.5 19.5t-19.5 48.5v1062l-115 -79l-15 -7.5t-22 -3.5q-29 0 -48 18.5t-19 47.5z" />
<glyph unicode="2" horiz-adv-x="1150" d="M195 66q0 74 46 150.5t114.5 154.5t148.5 155.5t148.5 152.5t114.5 147.5t46 138.5q0 76 -24.5 122t-60.5 70.5t-78 32.5t-77 8q-43 0 -80.5 -10t-69.5 -23.5t-55.5 -27t-33.5 -21.5q-14 -10 -37 -10q-29 0 -49.5 19.5t-20.5 48.5q0 33 37 57q18 12 47 28.5t67 32 t87 26.5t108 11q43 0 107.5 -10t125 -47t103.5 -109.5t43 -197.5q0 -82 -36.5 -156t-94 -142.5t-127 -135t-137.5 -132t-124 -132t-87 -136.5h543q29 0 48 -18.5t19 -46.5q0 -29 -19 -47.5t-48 -18.5h-627q-29 0 -48 18.5t-19 47.5z" />
<glyph unicode="3" horiz-adv-x="1181" d="M195 147q0 29 21.5 47.5t49.5 18.5q20 0 38 -14.5t49.5 -33t82.5 -32.5t139 -14q57 0 107.5 19.5t87.5 51t58.5 74.5t21.5 92q0 70 -28.5 116t-75 73.5t-101.5 40t-106 12.5h-50q-31 0 -49 18.5t-18 47.5t19.5 47t47.5 18h50q49 0 100 13.5t93 42t69.5 73.5t27.5 109 q0 78 -29.5 124t-70.5 69.5t-85 30.5t-75 7q-43 0 -79.5 -10t-66.5 -23.5t-50.5 -27t-30.5 -19.5q-16 -12 -39 -12q-29 0 -48 19.5t-19 48.5t28 53q8 8 34 24.5t65.5 34t92 30.5t113.5 13q82 0 155 -22.5t127 -67.5t86 -112.5t32 -159.5q0 -47 -13.5 -94.5t-40 -87.5 t-65.5 -69.5t-90 -43.5q55 -10 98 -40t71.5 -73t44 -96t15.5 -107q0 -82 -34.5 -149.5t-92 -116.5t-132.5 -75.5t-155 -26.5q-84 0 -148.5 15t-108.5 33.5t-68.5 35t-28.5 20.5q-14 12 -20 24.5t-6 30.5z" />
<glyph unicode="4" horiz-adv-x="1234" d="M154 395q0 16 8 33q53 109 117.5 214.5t131 199.5t129 175t112.5 141.5t82 97t38 42.5q18 18 49 19q29 0 47.5 -18.5t18.5 -43.5q0 -31 -23 -53q-2 -2 -57 -61.5t-137 -159.5t-176.5 -234.5t-171.5 -285.5h444v418q0 29 19.5 48t48.5 19t48 -19.5t19 -47.5v-418h86 q29 0 48.5 -18.5t19.5 -47.5t-19.5 -47t-48.5 -18h-86v-262q0 -29 -19.5 -48.5t-47.5 -19.5q-29 0 -48.5 19.5t-19.5 48.5v262h-545q-35 0 -51 21.5t-16 43.5z" />
<glyph unicode="5" horiz-adv-x="1161" d="M195 143q0 29 20.5 49.5t44.5 20.5q12 0 23.5 -3t23.5 -13q4 -4 22.5 -16.5t48.5 -27t70.5 -24.5t90.5 -10q51 0 103 17.5t94 55t67.5 98t25.5 148.5q0 59 -21.5 110.5t-60 88.5t-92 58.5t-116.5 21.5q-82 0 -137.5 -24.5t-67.5 -33.5q-18 -14 -41 -14q-25 0 -44.5 15.5 t-23.5 50.5v542q0 29 20.5 46.5t49.5 17.5h536q29 0 48.5 -17.5t19.5 -46.5t-19.5 -48t-48.5 -19h-471v-375q10 4 58.5 20.5t120.5 16.5q92 0 170.5 -31t136 -86t90.5 -130t33 -163q0 -123 -40 -209t-102.5 -140t-138.5 -77.5t-149 -23.5q-72 0 -128.5 14t-96.5 32.5 t-64 35.5l-31 20q-25 23 -24 53z" />
<glyph unicode="6" horiz-adv-x="1234" d="M195 596q0 383 113.5 558t357.5 175q78 0 134 -15.5t93 -33.5t55.5 -34.5t20.5 -18.5q10 -10 16 -22.5t6 -28.5q0 -27 -16.5 -46.5t-44.5 -19.5q-18 0 -32.5 7t-29.5 18q-6 6 -21.5 16t-40 20.5t-60 18.5t-80.5 8q-59 0 -118 -18.5t-107 -82t-77.5 -182t-29.5 -319.5 q0 -229 74.5 -353t222.5 -124q80 0 132 33.5t83 83t43 104.5t12 100q0 39 -12 89.5t-43 94.5t-83 73.5t-132 29.5q-70 0 -113 -25q-16 -8 -31 -8q-27 0 -44 17.5t-17 48.5q0 23 18.5 38t30.5 23q29 16 69 26.5t87 10.5q119 0 198.5 -43t125.5 -107.5t65.5 -137t19.5 -130.5 q0 -61 -19.5 -140t-65.5 -148.5t-125.5 -116.5t-198.5 -47q-211 0 -323.5 156.5t-112.5 451.5z" />
<glyph unicode="7" horiz-adv-x="1116" d="M133 1253q0 29 19.5 46.5t48.5 17.5h717q29 0 48 -17.5t19 -46.5q0 -43 -19.5 -101t-51 -123.5t-69.5 -135.5t-75 -135q-47 -84 -97 -178.5t-91 -186.5t-68 -177t-27 -148q0 -29 -19 -48.5t-48 -19.5t-48.5 19.5t-19.5 48.5q0 80 28 175t72 193.5t97 197.5t104 189 q27 49 55.5 98.5t53 97.5t44 90t30.5 77h-635q-29 0 -48.5 19.5t-19.5 47.5z" />
<glyph unicode="8" horiz-adv-x="1239" d="M184 367q0 76 24.5 135t56.5 101t63 65t47 28q-16 6 -41 25q-25 18 -49.5 50t-43 81t-18.5 117q0 106 42 175.5t102.5 110.5t129 57.5t121.5 16.5q74 0 146 -21.5t129 -65.5t92 -111.5t35 -161.5q0 -59 -21.5 -111.5t-50 -93.5t-57.5 -68q-29 -25 -41 -28q14 -6 47 -23 q35 -18 68.5 -54t60.5 -91.5t27 -132.5q0 -184 -113 -281.5t-322 -97.5q-96 0 -176 26.5t-137 75.5t-89 119t-32 158zM324 367q0 -68 26.5 -115t68.5 -77t94 -43t105 -13q51 0 103.5 10t95.5 38t69.5 76t26.5 124q0 70 -32.5 114.5t-81.5 70.5t-105.5 39t-101.5 19l-78 11 q-35 -2 -69.5 -20.5t-61.5 -51.5t-43 -79t-16 -103zM362 969q0 -66 26 -111t71 -73.5t108.5 -43t139.5 -20.5q31 2 61.5 24.5t55 56.5t41 77t16.5 90q0 68 -28 111.5t-68 70.5t-85 37t-82 10t-80.5 -10t-82.5 -37t-66 -71t-27 -111z" />
<glyph unicode="9" horiz-adv-x="1232" d="M195 877q0 61 19 140t65.5 148.5t125 116.5t199.5 47q211 0 323.5 -156.5t112.5 -451.5q0 -383 -113.5 -558t-357.5 -175q-78 0 -134 14t-93 32.5t-55.5 35t-20.5 20.5q-10 10 -16 22.5t-6 28.5q0 27 16 46.5t45 19.5q18 0 32.5 -7t29.5 -18q6 -6 21 -16t40 -20.5 t59.5 -18.5t81.5 -8q57 0 116.5 18.5t108 82t78 182t29.5 319.5q0 229 -74.5 353t-222.5 124q-80 0 -132 -34t-83 -83t-43 -104t-12 -100q0 -41 12 -90.5t43 -93.5t83 -73.5t132 -29.5q70 0 113 24q6 4 12 6.5t16 2.5q27 0 45.5 -17.5t18.5 -48.5q0 -23 -18.5 -38t-30.5 -23 q-29 -16 -69 -26.5t-87 -10.5q-121 0 -199.5 43t-125 107.5t-65.5 136t-19 131.5z" />
<glyph unicode=":" horiz-adv-x="440" d="M154 55v68q0 29 19.5 48t47.5 19q29 0 48.5 -19t19.5 -48v-68q0 -29 -19.5 -48t-48.5 -19t-48 19.5t-19 47.5zM154 821v70q0 29 19.5 47t47.5 18q29 0 48.5 -18t19.5 -47v-70q0 -29 -19.5 -48t-48.5 -19t-48 19.5t-19 47.5z" />
<glyph unicode=";" horiz-adv-x="512" d="M143 -176q0 29 19 49q41 41 51 99.5t10 121.5q0 29 19.5 48.5t48.5 19.5t48 -19.5t19 -48.5v-10q0 -18 -3 -55t-13 -81t-29.5 -89t-54.5 -80q-10 -10 -23.5 -14.5t-25.5 -4.5q-29 0 -47.5 17.5t-18.5 46.5zM223 821v70q0 29 19.5 47t48.5 18t48 -18t19 -47v-70 q0 -29 -19.5 -48t-47.5 -19q-29 0 -48.5 19.5t-19.5 47.5z" />
<glyph unicode="&#x3c;" horiz-adv-x="1228" d="M182 481q0 23 10.5 35t26.5 23l727 370q16 10 35 11q27 0 45 -20.5t18 -49.5q0 -23 -12 -35t-28 -22l-613 -312l615 -321q35 -20 34 -62q0 -29 -21.5 -46t-43.5 -17q-14 0 -31 8l-725 379q-20 10 -28.5 22.5t-8.5 36.5z" />
<glyph unicode="=" horiz-adv-x="1228" d="M182 358q0 29 19.5 47.5t48.5 18.5h727q29 0 48 -18.5t19 -47.5t-19 -47t-48 -18h-727q-29 0 -48.5 18.5t-19.5 46.5zM182 623q0 29 19.5 47t48.5 18h727q29 0 48 -18.5t19 -46.5q0 -29 -19 -47.5t-48 -18.5h-727q-29 0 -48.5 18.5t-19.5 47.5z" />
<glyph unicode="&#x3e;" horiz-adv-x="1228" d="M182 850q0 29 17.5 49.5t44.5 20.5q16 0 37 -11q139 -72 272 -139q115 -59 237.5 -121.5t215.5 -109.5q16 -10 27 -22.5t11 -35.5q0 -25 -8 -37t-30 -22l-723 -379q-20 -8 -33 -8q-20 0 -43 17.5t-23 45.5q0 18 10.5 35t26.5 27l613 321l-613 312q-16 10 -27.5 22 t-11.5 35z" />
<glyph unicode="?" horiz-adv-x="1052" d="M174 1163q0 27 25 49q2 2 24.5 18.5t62.5 36t95 35t125 15.5q80 0 148.5 -28.5t118.5 -79t79 -121t29 -154.5q0 -76 -27 -128t-65.5 -93t-86 -75t-86 -73t-65.5 -87t-27 -116q0 -29 -19 -48t-48 -19t-48.5 19.5t-19.5 47.5q0 68 16.5 120.5t42 92t59.5 71.5t68 59l31 26 q53 41 94 86t41 117q0 55 -17 101t-49 80t-75 52.5t-94 18.5q-41 0 -78 -9.5t-66.5 -22.5t-50 -25.5t-28.5 -18.5q-23 -14 -43 -14q-29 0 -47.5 19.5t-18.5 47.5zM389 55v68q0 29 19.5 48t48.5 19t48 -19t19 -48v-68q0 -29 -19.5 -48t-47.5 -19q-29 0 -48.5 19.5t-19.5 47.5 z" />
<glyph unicode="@" horiz-adv-x="1527" d="M113 649q0 137 52 259t142 212t211 143.5t258 53.5q147 0 266 -40t202 -113.5t128 -180t45 -238.5q0 -70 -27.5 -141.5t-75.5 -129.5t-113.5 -95t-141.5 -37q-41 0 -91.5 20.5t-60.5 67.5q-10 -10 -28.5 -25.5t-45 -29t-59.5 -23.5t-72 -10q-115 0 -178 65.5t-63 176.5 q0 72 25.5 148.5t74.5 139t119 103.5t156 41q51 0 112.5 -20.5t95.5 -47.5q10 -8 19.5 -20.5t9.5 -32.5q-8 -51 -18.5 -112.5t-20.5 -117t-17 -97.5t-7 -56q0 -39 34 -39q47 0 90.5 24.5t75 62.5t50 87t18.5 98q0 98 -35 180.5t-100.5 139.5t-157.5 89t-209 32 q-109 0 -204 -43t-166.5 -117t-112.5 -171t-41 -206t41 -205t112.5 -167.5t167 -114.5t203.5 -43q78 0 156 26.5t149 73.5q6 4 14.5 7t18.5 3q29 0 47.5 -20.5t18.5 -48.5q0 -31 -33 -58q-80 -55 -176.5 -84.5t-194.5 -29.5q-137 0 -258 52t-211 141t-142 210t-52 258z M600 584q0 -18 6 -38t18.5 -36t33 -26.5t51.5 -10.5q47 0 90 22.5t84 61.5l51 301q-23 12 -47.5 20.5t-50.5 8.5q-53 0 -96.5 -29t-74 -73t-48 -98t-17.5 -103z" />
<glyph unicode="A" horiz-adv-x="1157" d="M51 61q0 6 2 15.5t4 15.5q2 8 24.5 80t57.5 180.5t79 240.5t90 260t90 238.5t81 178.5q23 47 99 47q35 0 62.5 -10.5t37.5 -38.5q31 -63 73 -171t88 -234t91 -256t81 -239.5t60.5 -184.5t30.5 -91q2 -6 4 -15t2 -16q0 -27 -17.5 -44t-52.5 -17q-27 0 -39 11.5t-20 33.5 q-16 45 -45 137t-70 209h-573q-39 -117 -65.5 -209t-43.5 -137q-14 -45 -65 -45q-35 0 -50.5 17.5t-15.5 43.5zM336 522h485q-53 162 -112.5 326t-130.5 332q-72 -168 -130.5 -332t-111.5 -326z" />
<glyph unicode="B" horiz-adv-x="1103" d="M195 68v1185q0 29 18 46.5t47 17.5h250q31 0 74 -2t91 -12.5t94 -32t84 -61.5t60.5 -100t22.5 -148q0 -59 -19.5 -107.5t-46 -85.5t-51 -58.5t-33.5 -25.5q86 -27 146.5 -107.5t60.5 -209.5q0 -90 -26.5 -151.5t-70.5 -102.5t-97.5 -63.5t-107.5 -34t-102 -13.5t-79 -2 h-248q-29 0 -48 19.5t-19 48.5zM330 131h180q35 0 93.5 5t113.5 27.5t96 70t41 133.5q0 233 -291 233h-233v-469zM330 731h252q18 0 41 -2q14 6 42.5 21.5t57.5 42t51.5 67.5t22.5 101q0 82 -33 128t-80 67.5t-97 25.5t-83 4h-174v-455z" />
<glyph unicode="C" horiz-adv-x="1230" d="M113 657q0 143 46 266.5t126 213.5t188.5 141t235.5 51q80 0 142 -12t110.5 -28.5t80 -36t48.5 -31.5q28 -24 28 -56q0 -31 -21.5 -49t-43.5 -18q-23 0 -41 14q-4 4 -25.5 17.5t-58.5 29t-92.5 27.5t-126.5 12q-98 0 -182.5 -42t-144.5 -114.5t-95 -171t-35 -213.5 q0 -117 32.5 -215t90 -169.5t137.5 -112.5t176 -41q86 0 163 22.5t150 63.5q6 4 15.5 7t19.5 3q29 0 48.5 -20.5t19.5 -49.5q0 -37 -29 -53q-98 -51 -190 -77.5t-197 -26.5q-123 0 -228.5 50t-182 140t-120.5 212t-44 267z" />
<glyph unicode="D" horiz-adv-x="1316" d="M195 68v1183q0 29 18 47.5t47 18.5h354q131 0 241 -49t186.5 -138.5t119.5 -211t43 -265.5q0 -143 -43 -263t-119.5 -207t-186.5 -135t-241 -48h-354q-29 0 -47 19.5t-18 48.5zM330 131h284q104 0 187.5 38t141.5 107.5t90 166t32 210.5q0 117 -32 214.5t-90 168 t-141 110.5t-188 40h-284v-1055z" />
<glyph unicode="E" horiz-adv-x="1026" d="M195 66v1187q0 29 19 46.5t48 17.5h535q29 0 48 -17.5t19 -46.5t-19.5 -48t-47.5 -19h-467v-428h432q29 0 48 -18.5t19 -47.5t-19 -47t-48 -18h-432v-496h506q29 0 48 -18.5t19 -46.5q0 -29 -19.5 -47.5t-47.5 -18.5h-574q-29 0 -48 18.5t-19 47.5z" />
<glyph unicode="F" horiz-adv-x="966" d="M195 68v1185q0 29 19 46.5t48 17.5h535q29 0 48 -17.5t19 -46.5t-19.5 -48t-47.5 -19h-467v-428h432q29 0 48 -18.5t19 -47.5t-19 -47t-48 -18h-432v-559q0 -29 -19.5 -48.5t-48.5 -19.5t-48 19.5t-19 48.5z" />
<glyph unicode="G" horiz-adv-x="1277" d="M113 655q0 143 46 266t126 214.5t188.5 142.5t235.5 51q129 0 207.5 -29.5t140.5 -62.5q35 -18 35 -61q0 -29 -21.5 -48.5t-48.5 -19.5q-12 0 -29 8q-53 31 -118.5 56.5t-165.5 25.5q-98 0 -182.5 -42t-144.5 -114.5t-95 -172t-35 -214.5q0 -117 32.5 -215t90 -169.5 t137.5 -111.5t176 -40q164 0 301 65v285q0 47 -12 58.5t-64 11.5h-155q-29 0 -47.5 17t-18.5 46t18.5 48.5t47.5 19.5h155q66 0 107 -8.5t64.5 -31t31.5 -62.5t8 -103v-320q0 -16 -10 -34.5t-27 -26.5q-88 -45 -189 -70.5t-210 -25.5q-123 0 -228.5 50t-182 139t-120.5 211 t-44 267z" />
<glyph unicode="H" horiz-adv-x="1267" d="M195 68v1181q0 29 19 48.5t48 19.5t48.5 -19.5t19.5 -48.5v-491h610v491q0 29 19.5 48.5t48.5 19.5t48 -19.5t19 -48.5v-1181q0 -29 -19.5 -48.5t-47.5 -19.5q-29 0 -48.5 19.5t-19.5 48.5v559h-610v-559q0 -29 -19.5 -48.5t-48.5 -19.5t-48 19.5t-19 48.5z" />
<glyph unicode="I" horiz-adv-x="522" d="M195 68v1181q0 29 19 48.5t48 19.5t48.5 -19.5t19.5 -48.5v-1181q0 -29 -19.5 -48.5t-48.5 -19.5t-48 19.5t-19 48.5z" />
<glyph unicode="J" horiz-adv-x="546" d="M-208.5 -136q18.5 19 42.5 19q23 0 43 -14q8 -6 40 -23.5t101 -17.5q29 0 64 13.5t65.5 44t51 82.5t20.5 132v1149q0 29 18.5 48.5t47.5 19.5t49 -19.5t20 -48.5v-1149q0 -119 -34.5 -196.5t-86 -123.5t-109.5 -64.5t-106 -18.5q-49 0 -86.5 8t-65.5 18.5t-44.5 20.5 t-20.5 14q-28 19 -28 57q0 30 18.5 49z" />
<glyph unicode="K" horiz-adv-x="1177" d="M195 68v1181q0 29 19 48.5t48 19.5t48.5 -19.5t19.5 -48.5v-506l551 551q23 23 51 23q29 0 46 -19.5t17 -46.5q0 -25 -18 -47l-508 -506q37 -29 98.5 -79t139 -123.5t167 -172t179.5 -221.5q12 -16 12 -36q0 -29 -18.5 -47.5t-47.5 -18.5q-39 0 -57 29q-84 117 -169 211 t-164 168.5t-150.5 132t-128.5 98.5v-571q0 -29 -19.5 -48.5t-48.5 -19.5t-48 19.5t-19 48.5z" />
<glyph unicode="L" horiz-adv-x="956" d="M195 66v1183q0 29 19 48.5t48 19.5t48.5 -19.5t19.5 -48.5v-1118h508q29 0 48 -18.5t19 -46.5q0 -29 -19.5 -47.5t-47.5 -18.5h-576q-29 0 -48 18.5t-19 47.5z" />
<glyph unicode="M" horiz-adv-x="1646" d="M154 68l131 1192q4 23 21.5 40t45.5 17h23q55 0 90 -47q20 -29 49 -94.5t60.5 -152.5t66.5 -188.5t67.5 -204t62.5 -196.5t52 -168q20 70 49 161t61 190.5t64.5 198.5t64.5 186.5t61.5 155t52.5 104.5q35 55 94 55h24q27 0 45.5 -15.5t22.5 -41.5l131 -1186 q0 -29 -14.5 -51.5t-48.5 -22.5q-63 0 -70 59l-111 1067q-25 -57 -58.5 -149t-69.5 -198.5t-71.5 -217t-64.5 -206t-49.5 -165t-26.5 -92.5q-8 -29 -33.5 -46t-48.5 -17h-12q-23 0 -47.5 17.5t-30.5 43.5q-8 31 -30.5 105.5t-52 172t-64.5 207t-70 214t-67.5 192.5 t-55.5 139l-112 -1067q-4 -27 -21.5 -43t-48.5 -16t-46 18.5t-15 49.5z" />
<glyph unicode="N" horiz-adv-x="1259" d="M195 68v1181q0 29 19 48.5t48 19.5h25q16 0 39.5 -5t44.5 -24q33 -33 72.5 -96.5t82.5 -147t88 -181t88 -195.5q66 -150 124.5 -273t105.5 -196v1050q0 29 19.5 48.5t49.5 19.5q29 0 47.5 -19.5t18.5 -48.5v-1181q0 -31 -18.5 -49.5t-47.5 -18.5h-24q-20 0 -44 7t-40 24 q-31 29 -71 93t-84 149t-92 185.5t-95 203.5q-78 170 -126 278.5t-95 177.5v-1050q0 -31 -19.5 -49.5t-48.5 -18.5t-48 18.5t-19 49.5z" />
<glyph unicode="O" horiz-adv-x="1341" d="M113 655q0 143 43 266t117.5 214.5t177 142.5t221.5 51q121 0 223 -50t176 -140t116 -214t42 -270q0 -145 -42 -267t-116 -211t-176 -139t-223 -50q-119 0 -221.5 51t-177 140t-117.5 212t-43 264zM252 655q0 -115 31.5 -212t88 -169.5t133.5 -113.5t167 -41q92 0 169 40 t132 111.5t86 170t31 214.5q0 117 -31 216.5t-86 172t-132 113.5t-169 41q-90 0 -167 -42t-133.5 -114.5t-88 -172t-31.5 -214.5z" />
<glyph unicode="P" horiz-adv-x="1001" d="M195 68v1181q0 29 19 48.5t48 19.5h303q82 0 152.5 -26.5t122 -75t81 -113t29.5 -139.5q0 -106 -34.5 -180t-90 -119.5t-124 -65.5t-136.5 -20h-80q-29 0 -48 18t-19 47t19.5 47.5t47.5 18.5h80q43 0 87 13t79 43t57.5 78t22.5 120q0 96 -68.5 159.5t-177.5 63.5h-235 v-1118q0 -29 -19.5 -48.5t-48.5 -19.5t-48 19.5t-19 48.5z" />
<glyph unicode="Q" horiz-adv-x="1339" d="M113 655q0 143 43 266t117.5 214.5t177 142.5t221.5 51q121 0 224 -50t178 -140t118 -214t43 -270q0 -135 -36 -246.5t-99.5 -195.5t-152.5 -138.5t-193 -72.5q25 -47 92 -80t196 -33q45 0 78 6.5t60 6.5q35 0 54 -18.5t19 -47.5q0 -35 -26.5 -51t-67.5 -21 q-18 -2 -47 -3t-55 -1q-55 0 -121 8.5t-130.5 33t-122.5 70.5t-99 124q-102 16 -188.5 73.5t-150 144.5t-98 199.5t-34.5 241.5zM252 655q0 -115 31.5 -212t88 -169.5t133.5 -113.5t167 -41q92 0 170 40t134 111.5t88 170t32 214.5q0 117 -32 216.5t-88 172t-134 113.5 t-170 41q-90 0 -167 -42t-133.5 -114.5t-88 -172t-31.5 -214.5z" />
<glyph unicode="R" horiz-adv-x="1103" d="M195 68v1181q0 29 19 48.5t48 19.5h303q84 0 155 -25.5t122 -71.5t79.5 -109.5t28.5 -137.5q0 -94 -31.5 -158.5t-74.5 -104.5t-85 -57.5t-61 -19.5q84 -55 155 -180t130 -291q8 -20 18.5 -53.5t10.5 -47.5q0 -18 -16.5 -39.5t-51.5 -21.5q-23 0 -41 13.5t-24 35.5 q-80 258 -177.5 403.5t-183.5 145.5h-33q-29 0 -48 18.5t-19 47.5t19.5 47t47.5 18h80q23 0 64 6t82 31t70.5 73t29.5 134q0 92 -67.5 152.5t-178.5 60.5h-235v-1118q0 -29 -19.5 -48.5t-48.5 -19.5t-48 19.5t-19 48.5z" />
<glyph unicode="S" horiz-adv-x="1003" d="M132.5 222.5q19.5 17.5 43.5 17.5q10 0 21.5 -3.5t27.5 -15.5q18 -14 44 -32.5t57.5 -34t70.5 -25.5t84 -10q127 0 200 65.5t73 173.5q0 74 -45 122t-113 86t-145.5 73t-145 82t-113 112.5t-45.5 163.5q0 78 32 139.5t84 104.5t120 65.5t139 22.5q53 0 99.5 -11t85 -27.5 t69.5 -36t55 -35.5q29 -20 29 -58q0 -29 -18.5 -47t-44.5 -18q-10 0 -21.5 3t-19.5 11q-35 29 -95.5 58.5t-138.5 29.5q-47 0 -89 -14.5t-74.5 -41t-52 -63.5t-19.5 -82q0 -72 45 -119t112.5 -83.5t145.5 -71.5t145.5 -82t112.5 -113.5t45 -169.5q0 -84 -29.5 -152.5 t-84 -116.5t-130.5 -74.5t-168 -26.5q-59 0 -107 11t-89 29.5t-76 42t-68 48.5q-28 22 -28 55q0 31 19.5 48.5z" />
<glyph unicode="T" horiz-adv-x="985" d="M31 1253q0 29 18.5 46.5t46.5 17.5h795q29 0 47 -17.5t18 -46.5t-18 -48t-47 -19h-334v-1118q0 -29 -19.5 -48.5t-48.5 -19.5t-48 19.5t-19 48.5v1118h-326q-29 0 -47 19.5t-18 47.5z" />
<glyph unicode="U" horiz-adv-x="1253" d="M188 432v817q0 29 19.5 48.5t48.5 19.5t48.5 -19.5t19.5 -48.5v-813q0 -37 11 -91t44 -104.5t92 -86t156 -35.5q98 0 157.5 35.5t91 86t43 104.5t11.5 91v813q0 29 19.5 48.5t47.5 19.5q29 0 48.5 -19.5t19.5 -48.5v-817q0 -33 -6 -79t-23.5 -95t-48.5 -97t-79 -87 t-118.5 -62.5t-164.5 -23.5t-164 23.5t-118 62.5t-79 87t-47 97t-22.5 95t-6.5 79z" />
<glyph unicode="V" horiz-adv-x="1155" d="M51 1255q0 27 16.5 44.5t49.5 17.5q53 0 67 -55q0 -2 18.5 -67t50.5 -166t73 -226t84 -249t86 -233.5t79 -179.5q49 96 104.5 243.5t109 307.5t100.5 312.5t82 261.5q8 25 21.5 39t41.5 14q18 0 44 -11.5t26 -52.5q0 -6 -4 -22q-25 -76 -57.5 -176.5t-69.5 -211t-77 -226 t-79 -222t-74.5 -196.5t-64.5 -150q-20 -35 -55 -43t-48 -8q-35 0 -62.5 13.5t-37.5 35.5q-33 59 -74 160.5t-85 222.5t-86 247t-77.5 236.5t-61 193.5t-34.5 114q-6 20 -6 32z" />
<glyph unicode="W" horiz-adv-x="1589" d="M51 1249v11q0 27 19.5 42t48.5 15q27 0 43 -11.5t22 -39.5q0 -4 14.5 -68.5t35 -166t48 -225.5t56.5 -247t55.5 -232.5t48.5 -181.5q27 84 55.5 188.5t56.5 214t52.5 217t45 199t35.5 158t22 95.5q4 31 29.5 48t56.5 17q35 0 57 -18.5t29 -46.5q10 -49 27.5 -128 t40 -174.5t48 -201t51 -208t51 -195.5t48.5 -165q23 72 49.5 181.5t55 232.5t56 247t48 225.5t34 166t15.5 68.5q12 51 68 51q29 0 47 -15.5t18 -41.5v-11q0 -6 -4 -20q-4 -29 -22.5 -118t-43 -209t-55.5 -255t-61.5 -257t-57 -214t-45.5 -125q-18 -35 -52 -43t-50 -8 q-14 0 -48 8t-52 43q-12 23 -34 89.5t-47.5 156.5t-53 194.5t-52 204t-43.5 183.5q-16 43 -22 92q-6 -49 -25 -94q-18 -84 -41.5 -184.5t-52.5 -206t-54.5 -196.5t-48 -157.5t-34.5 -87.5q-27 -45 -97 -45q-20 0 -50 7t-50 42q-18 33 -45 125t-57.5 214t-61.5 258t-56.5 256 t-44 209t-22.5 118q-4 14 -4 20z" />
<glyph unicode="X" horiz-adv-x="1003" d="M51 66q0 16 10 32l385 617q-68 104 -120 182t-95 136.5t-76.5 100.5t-62.5 78q-14 20 -14 41q0 29 21.5 46.5t47.5 17.5q31 0 54 -23q47 -59 124.5 -163.5t200.5 -286.5l277 448q8 12 22.5 18.5t30.5 6.5q29 0 48.5 -17.5t19.5 -44.5q0 -23 -11 -36l-307 -500 q88 -141 176 -299t164 -324q8 -16 8 -30q0 -29 -19.5 -47.5t-47.5 -18.5q-23 0 -38 10t-22 27q-72 154 -150.5 294t-150.5 259l-352 -557q-8 -14 -24.5 -23.5t-32.5 -9.5q-66 0 -66 66z" />
<glyph unicode="Y" horiz-adv-x="995" d="M51 1255q0 27 18.5 44.5t51.5 17.5q25 0 41 -14.5t20 -30.5q4 -10 22.5 -54t46.5 -105.5t61.5 -132.5t66.5 -137.5t63.5 -120.5t53.5 -81q23 27 53.5 82t65 122.5t68.5 140.5t62.5 135.5t48 106.5t23.5 54q14 35 60 35q33 0 49 -17.5t16 -44.5q0 -14 -4 -24l-18 -45 q-18 -45 -49 -113.5t-70 -151.5t-81 -162t-83 -142.5t-74 -94.5v-454q0 -29 -19.5 -48.5t-47.5 -19.5q-29 0 -48.5 19.5t-19.5 48.5v454q-33 31 -72 89.5t-77.5 131t-75.5 150.5t-68 146.5t-51 119.5l-29 72q-4 16 -4 24z" />
<glyph unicode="Z" horiz-adv-x="958" d="M51 66v22q0 35 17 64q20 41 64 115.5t101.5 167.5t124 197.5t131 206t123 191.5t101.5 156h-594q-29 0 -48.5 19.5t-19.5 47.5q0 29 19.5 46.5t48.5 17.5h690q29 0 48.5 -17.5t19.5 -46.5v-24q0 -20 -6.5 -40t-16.5 -34q-27 -37 -75 -111.5t-109.5 -169t-128 -201 t-130 -207.5t-116.5 -189.5t-86 -145.5h631q29 0 48 -18.5t19 -46.5q0 -29 -19.5 -47.5t-47.5 -18.5h-721q-29 0 -48.5 18.5t-19.5 47.5z" />
<glyph unicode="[" horiz-adv-x="765" d="M195 -162v1417q0 29 19 45.5t48 16.5h244q29 0 47 -16.5t18 -45.5t-18 -49t-47 -20h-176v-1280h176q29 0 47 -19.5t18 -48.5t-18 -46t-47 -17h-244q-29 0 -48 17.5t-19 45.5z" />
<glyph unicode="\" horiz-adv-x="849" d="M90 1354q0 29 22.5 45t49.5 16q45 0 59 -41l533 -1419q4 -10 4 -23q0 -29 -20.5 -47t-45.5 -18q-23 0 -41 12t-24 31l-531 1419q-6 14 -6 25z" />
<glyph unicode="]" horiz-adv-x="765" d="M195 -162q0 29 19 48.5t48 19.5h174v1280h-174q-29 0 -48 20.5t-19 48.5q0 29 19 45.5t48 16.5h244q29 0 48 -16.5t19 -45.5v-1417q0 -29 -19 -46t-48 -17h-244q-29 0 -48 17.5t-19 45.5z" />
<glyph unicode="^" horiz-adv-x="1060" d="M123 541q0 20 10 43l338 694q8 16 20.5 27.5t40.5 11.5q27 0 40.5 -11.5t19.5 -27.5l334 -694q12 -25 12 -45q0 -25 -20.5 -44.5t-49.5 -19.5q-23 0 -39 10.5t-22 26.5l-275 582l-280 -582q-8 -14 -25.5 -24.5t-36.5 -10.5q-29 0 -48 17.5t-19 46.5z" />
<glyph unicode="_" horiz-adv-x="1048" d="M72 -129q0 29 19.5 47.5t47.5 18.5h770q29 0 48.5 -18.5t19.5 -47.5t-19.5 -47.5t-48.5 -18.5h-770q-29 0 -48 18.5t-19 47.5z" />
<glyph unicode="`" horiz-adv-x="686" d="M113 1292q0 31 17 49.5t44 18.5q8 0 21 -4l331 -137q45 -20 45 -64q0 -27 -16 -46t-45 -19q-14 0 -31 8l-321 133q-16 8 -30.5 22.5t-14.5 38.5z" />
<glyph unicode="a" horiz-adv-x="935" d="M92 279q0 143 100.5 214.5t296.5 71.5h162v103q0 25 -10 52.5t-32.5 51t-59.5 39.5t-88 16q-82 0 -133.5 -17t-85.5 -36q-8 -4 -15.5 -7t-21.5 -3q-31 0 -48.5 20.5t-17.5 44.5q0 12 6.5 27.5t22.5 26.5q18 12 49 25.5t70 24.5t83 18t91 7q88 0 149.5 -27.5t100.5 -70.5 t57 -94t18 -98v-453q0 -43 5.5 -58.5t15.5 -19.5q25 -10 41 -28.5t16 -42.5q0 -31 -18.5 -48.5t-46.5 -17.5q-4 0 -18.5 2t-32 9t-35 21.5t-29.5 39.5q-35 -29 -100.5 -56.5t-155.5 -27.5q-61 0 -120.5 17.5t-107.5 52t-78 90t-30 131.5zM231 279q0 -41 17.5 -71t45.5 -50.5 t62.5 -29.5t71.5 -9q39 0 77 7t67.5 17.5t50 22.5t28.5 22v248h-162q-258 0 -258 -157z" />
<glyph unicode="b" d="M154 129v1212q0 29 19.5 48.5t47.5 19.5q29 0 48.5 -19.5t19.5 -48.5v-434q18 10 70.5 30.5t140.5 20.5q98 0 177 -34.5t134 -97t86 -151.5t31 -198q0 -111 -32 -201t-89 -154.5t-137 -99t-174 -34.5q-37 0 -83 6t-90 18.5t-84 30.5t-67 43q-18 23 -18 43zM289 164 q96 -45 207 -45q76 0 131 30.5t91 82t53 116t17 129.5q0 162 -77.5 256t-210.5 94q-37 0 -72 -7t-62.5 -16t-48 -18.5t-28.5 -15.5v-606z" />
<glyph unicode="c" horiz-adv-x="960" d="M92 477q0 102 37 190.5t100.5 153t149.5 101t184 36.5q68 0 135.5 -20t124.5 -57q29 -16 29 -58q0 -29 -18.5 -47t-47.5 -18q-23 0 -36 10q-41 29 -90.5 44t-96.5 15q-72 0 -132 -26.5t-105 -73.5t-70 -111.5t-25 -138.5q0 -66 17.5 -130t52.5 -115.5t90 -82t133 -30.5 q59 0 124 19.5t120 49.5q14 8 35 9q25 0 45 -18.5t20 -49.5q0 -16 -10 -31.5t-24 -25.5q-68 -37 -149 -60.5t-161 -23.5q-96 0 -176 34.5t-136 99t-88 155t-32 200.5z" />
<glyph unicode="d" horiz-adv-x="1015" d="M90 475q0 106 33 194.5t91 153t140 100t181 35.5q80 0 128 -19t68 -32v434q0 29 19.5 48.5t48.5 19.5t48 -19.5t19 -48.5v-1126q0 -43 6.5 -58.5t16.5 -19.5q25 -10 41 -26.5t16 -42.5q0 -29 -19.5 -48.5t-47.5 -19.5q-6 0 -19.5 2t-31 9t-35 21.5t-29.5 37.5 q-39 -23 -102.5 -52.5t-137.5 -29.5q-96 0 -176 34.5t-137 99t-89 155t-32 198.5zM229 477q0 -66 17.5 -130t53.5 -115.5t91 -82t133 -30.5q31 0 64 8t61.5 18.5t50 22.5t31.5 18v584q-20 12 -74.5 34.5t-121.5 22.5q-68 0 -124.5 -25.5t-96.5 -71.5t-62.5 -110.5 t-22.5 -142.5z" />
<glyph unicode="e" horiz-adv-x="958" d="M92 471q0 111 30 201t85 153.5t134 98t175 34.5q82 0 146.5 -25.5t108.5 -65.5t66.5 -89t22.5 -94q0 -86 -43 -142.5t-124 -88t-196.5 -45t-258.5 -15.5q6 -55 26.5 -105t55 -88t80.5 -59.5t106 -21.5q43 0 86 10t80 22.5t62.5 23.5t33.5 15q10 4 19.5 6.5t15.5 2.5 q27 0 45 -19.5t18 -46.5q0 -23 -10 -36t-22 -21l-33 -17q-29 -14 -74 -29.5t-102.5 -28.5t-118.5 -13q-92 0 -168 34.5t-131 99t-85 152.5t-30 197zM231 516q264 4 377 44t113 124q0 23 -12.5 47.5t-38 46t-64.5 35.5t-90 14q-123 0 -198.5 -79.5t-86.5 -231.5z" />
<glyph unicode="f" horiz-adv-x="665" d="M10 881q0 29 19.5 47t48.5 18h106q8 154 53.5 244t103.5 137t119.5 61.5t102.5 14.5t81 -6t81 -23q43 -16 43 -63q0 -29 -18.5 -45.5t-47.5 -16.5h-10q-6 0 -16 4q-25 8 -51.5 13.5t-61.5 5.5q-31 0 -70.5 -11.5t-76.5 -46t-63.5 -98t-33.5 -170.5h236q29 0 48.5 -18.5 t19.5 -46.5q0 -29 -19.5 -47.5t-48.5 -18.5h-238v-747q0 -29 -19 -48.5t-48 -19.5t-48.5 19.5t-19.5 48.5v747h-104q-29 0 -48.5 18.5t-19.5 47.5z" />
<glyph unicode="g" horiz-adv-x="1001" d="M0 -260q0 23 16.5 44t49.5 21q23 0 43 -14q10 -6 29.5 -18.5t48 -24.5t64.5 -21.5t77 -9.5q53 0 114.5 14.5t116.5 51.5t96.5 100.5t53.5 161.5q-25 -16 -84.5 -36.5t-126.5 -20.5q-94 0 -172 34.5t-134.5 98t-87 155t-30.5 201.5q0 104 31.5 193.5t90 153t140.5 99 t180 35.5q49 0 96 -9t86 -21.5t69 -26.5t46 -24q10 -6 22.5 -21.5t12.5 -42.5v-709q0 -147 -50 -246.5t-127 -159.5t-169 -86t-174 -26q-61 0 -113.5 13.5t-91.5 30t-64 32.5l-30 21q-14 10 -21.5 25.5t-7.5 31.5zM213 477q0 -164 78 -261t207 -97q33 0 67.5 8t64 19.5 t51 23.5t32.5 23v589q-33 16 -80 30.5t-117 14.5t-125 -26.5t-95 -72.5t-61.5 -110.5t-21.5 -140.5z" />
<glyph unicode="h" horiz-adv-x="1019" d="M154 68v1273q0 29 19.5 48.5t47.5 19.5q29 0 48.5 -19.5t19.5 -48.5v-448q35 20 96 42.5t145 22.5q102 0 168 -24.5t103 -69.5t51 -111.5t14 -148.5v-536q0 -29 -19.5 -48.5t-47.5 -19.5q-29 0 -48.5 19.5t-19.5 48.5v522q0 70 -11 116t-38 73.5t-71 37.5t-109 10 q-78 0 -137.5 -22.5t-75.5 -32.5v-704q0 -29 -19.5 -48.5t-48.5 -19.5t-48 19.5t-19 48.5z" />
<glyph unicode="i" horiz-adv-x="440" d="M154 68v811q0 29 19.5 48t47.5 19q29 0 48.5 -19.5t19.5 -47.5v-811q0 -29 -19.5 -48.5t-48.5 -19.5t-48 19.5t-19 48.5zM154 1188v69q0 29 19.5 48.5t47.5 19.5q29 0 48.5 -19.5t19.5 -48.5v-69q0 -29 -19.5 -48.5t-48.5 -19.5t-48 19.5t-19 48.5z" />
<glyph unicode="j" horiz-adv-x="444" d="M-295 -297q0 27 19.5 47.5t48.5 20.5q10 0 22 -4.5t27 -14.5q4 -4 33.5 -20.5t97.5 -16.5q29 0 63.5 13.5t65.5 44t52.5 83t21.5 132.5v891q0 29 19.5 48t47.5 19q29 0 48.5 -19.5t19.5 -47.5v-891q0 -119 -35 -197t-87 -124t-110.5 -64.5t-105.5 -18.5q-49 0 -86 8.5 t-63.5 18.5t-44 20.5t-23.5 16.5q-12 10 -21.5 25.5t-9.5 29.5zM156 1188v72q0 29 19.5 47t47.5 18q29 0 48.5 -18.5t19.5 -46.5v-72q0 -29 -19.5 -48.5t-48.5 -19.5t-48 19.5t-19 48.5z" />
<glyph unicode="k" horiz-adv-x="886" d="M154 68v1273q0 29 19.5 48.5t49.5 19.5q29 0 47.5 -19.5t18.5 -48.5v-753h24l336 338q12 12 24.5 16t26.5 4q29 0 48.5 -19.5t19.5 -45.5q0 -12 -4 -24.5t-16 -25.5l-302 -296q66 -47 173.5 -150t226.5 -281q12 -18 12 -38q0 -27 -19.5 -46.5t-47.5 -19.5q-33 0 -52 29 q-68 96 -132 170.5t-119.5 128t-96.5 85t-59 44.5h-43v-389q0 -29 -18.5 -48.5t-47.5 -19.5q-31 0 -50 19.5t-19 48.5z" />
<glyph unicode="l" horiz-adv-x="489" d="M154 348v993q0 29 19.5 48.5t47.5 19.5q29 0 48.5 -19.5t19.5 -48.5v-993q0 -70 5 -112.5t16.5 -65.5t31.5 -31t51 -8q29 0 48.5 -18.5t19.5 -46.5q0 -29 -19.5 -47.5t-48.5 -18.5q-70 0 -116 16.5t-73.5 56.5t-38.5 107.5t-11 167.5z" />
<glyph unicode="m" horiz-adv-x="1548" d="M154 68v813q0 29 17 47t46 18q33 0 48.5 -17.5t15.5 -41.5q8 6 27.5 17t50 23.5t70.5 21.5t89 9q176 0 250 -86q63 41 138 63.5t161 22.5q170 0 249 -80.5t79 -267.5v-542q0 -29 -20.5 -48.5t-49.5 -19.5t-47 19.5t-18 48.5v522q0 70 -12.5 116t-38 73.5t-67.5 37.5 t-104 10q-66 0 -122 -15t-97 -38q10 -35 16.5 -73.5t6.5 -90.5v-542q0 -29 -19.5 -48.5t-48.5 -19.5t-48 19.5t-19 48.5v522q0 70 -11.5 116t-37 73.5t-66.5 37.5t-103 10q-82 0 -133 -22.5t-67 -32.5v-704q0 -29 -19.5 -48.5t-48.5 -19.5t-48 19.5t-19 48.5z" />
<glyph unicode="n" d="M154 68v813q0 29 17 47t46 18t46.5 -17.5t17.5 -41.5q8 6 30.5 17t54 23.5t73.5 21.5t91 9q178 0 256 -81.5t78 -266.5v-542q0 -29 -19.5 -48.5t-47.5 -19.5q-29 0 -48.5 19.5t-19.5 48.5v522q0 70 -11 116t-38 73.5t-71 37.5t-107 10q-78 0 -137.5 -22.5t-75.5 -32.5 v-704q0 -29 -19.5 -48.5t-48.5 -19.5t-48 19.5t-19 48.5z" />
<glyph unicode="o" horiz-adv-x="1009" d="M92 471q0 111 30 200t85 153.5t131 99t168 34.5t168 -34.5t130 -99t84 -153.5t30 -200t-29 -201t-82 -152.5t-130 -96t-171 -33.5q-92 0 -168 34.5t-131 99t-85 152.5t-30 197zM231 471q0 -160 73 -256t202 -96t200.5 94t71.5 258q0 166 -72.5 261t-199.5 95t-201 -96 t-74 -260z" />
<glyph unicode="p" d="M154 -389v1270q0 27 17 46t46 19t46.5 -18.5t17.5 -38.5q20 14 75.5 41.5t141.5 27.5q96 0 175 -33.5t136 -97t88 -151.5t31 -197q0 -106 -33 -196t-91.5 -156t-140 -102.5t-180.5 -36.5q-31 0 -63.5 6t-59 14t-46 16.5t-25.5 12.5v-426q0 -29 -19.5 -48.5t-48.5 -19.5 t-48 19.5t-19 48.5zM289 178q25 -16 79 -37.5t115 -21.5q70 0 126.5 27.5t96 76.5t61 114.5t21.5 141.5q0 160 -77.5 254t-212.5 94q-74 0 -131.5 -22.5t-77.5 -34.5v-592z" />
<glyph unicode="q" horiz-adv-x="1019" d="M92 475q0 111 32 200t89 151.5t137 97t176 34.5q84 0 164 -23.5t144 -60.5q10 -6 21 -20t11 -37v-1210q0 -29 -19.5 -48.5t-47.5 -19.5q-29 0 -48.5 19.5t-19.5 48.5v428q-43 -20 -97 -33.5t-116 -13.5q-96 0 -175 34.5t-134 99t-86 155t-31 198.5zM231 475 q0 -162 78 -259t209 -97q33 0 68 6t63.5 15.5t51 19.5t30.5 16v604q-45 20 -97 33.5t-108 13.5q-78 0 -133 -30.5t-91 -79.5t-53.5 -112.5t-17.5 -129.5z" />
<glyph unicode="r" horiz-adv-x="720" d="M154 68v813q0 29 19.5 47t47.5 18q29 0 47.5 -18.5t18.5 -46.5v-90q6 20 27.5 49.5t53 56.5t74.5 44t95 17q16 0 41.5 -3t49 -11t41 -23.5t17.5 -39.5q0 -29 -15.5 -47.5t-49.5 -18.5q-18 0 -41 6t-43 6q-29 0 -72 -11t-82 -51t-66.5 -118t-27.5 -209v-370 q0 -29 -19.5 -48.5t-48.5 -19.5t-48 19.5t-19 48.5z" />
<glyph unicode="s" horiz-adv-x="843" d="M92 135q0 29 20.5 46.5t45.5 17.5q23 0 39 -11q6 -4 26.5 -15t51 -23.5t68.5 -21.5t81 -9q35 0 68.5 6t60.5 21.5t43 42t16 69.5q0 47 -35.5 78t-89 56.5t-116 49t-115.5 57t-89 83t-36 123.5q0 66 28.5 113.5t74 78.5t102.5 46t115 15q84 0 146 -20t91 -37 q33 -16 33 -57q0 -29 -18.5 -46.5t-45.5 -17.5q-23 0 -41 8q-23 10 -65.5 24.5t-99.5 14.5q-35 0 -67 -6t-57.5 -20.5t-41 -38t-15.5 -57.5q0 -45 36 -74t89.5 -53.5t115.5 -48t115.5 -58.5t89.5 -86t36 -127q0 -55 -23.5 -104.5t-67 -86t-103.5 -58t-134 -21.5 q-61 0 -113.5 12t-92.5 27.5t-64.5 29t-30.5 17.5q-14 10 -22.5 24.5t-8.5 36.5z" />
<glyph unicode="t" horiz-adv-x="724" d="M4 883q0 29 19.5 46t48.5 17h102v213q0 29 19.5 48.5t48.5 19.5t48 -19.5t19 -48.5v-213h242q29 0 48 -17.5t19 -45.5q0 -29 -19 -48.5t-48 -19.5h-242v-465q0 -76 17.5 -122t46 -70.5t62.5 -31.5t69 -7t59.5 9t34.5 15q16 8 31 9q27 0 46 -17.5t19 -48.5q0 -23 -9 -37 t-23 -22t-56.5 -23.5t-95.5 -15.5q-61 0 -121.5 12t-109 50t-77 109.5t-28.5 190.5v465h-102q-29 0 -48.5 19.5t-19.5 48.5z" />
<glyph unicode="u" d="M154 334v545q0 29 19.5 48t47.5 19q29 0 48.5 -19.5t19.5 -47.5v-525q0 -70 10 -115.5t36.5 -72.5t71 -37t109.5 -10q76 0 133.5 28.5t79.5 51.5v680q0 29 19.5 48t48.5 19t48 -19.5t19 -47.5v-811q0 -29 -17 -48.5t-46 -19.5t-46.5 18.5t-17.5 47.5v8 q-12 -10 -33.5 -24.5t-54.5 -29t-72.5 -23.5t-89.5 -9q-180 0 -256.5 81t-76.5 265z" />
<glyph unicode="v" horiz-adv-x="886" d="M31 885q0 29 19.5 45t47.5 16q25 0 41.5 -13t22.5 -34q18 -55 51 -145t71 -194.5t79.5 -212t80.5 -197.5q39 90 81 197.5t80 212t71 194.5t51 145q16 47 64 47q29 0 48 -17.5t19 -45.5q0 -16 -8 -41q-4 -12 -23.5 -65.5t-48 -129.5t-62.5 -165t-68 -173t-63.5 -154.5 t-49.5 -109.5q-10 -16 -34 -30.5t-57 -14.5q-39 0 -60.5 14.5t-29.5 30.5q-20 39 -50 109.5t-63.5 154.5t-67.5 173t-62.5 165t-48 129t-23.5 66q-8 25 -8 43z" />
<glyph unicode="w" horiz-adv-x="1316" d="M31 881q0 29 16 47t51 18q29 0 45.5 -14t20.5 -37q0 -2 9 -43t24.5 -104.5t36 -143.5t42 -161t44 -155.5t42.5 -127.5q14 39 34 100.5t41.5 132t43 146t41 143.5t33.5 121t23 82q6 25 26.5 43t54.5 18q33 0 53.5 -18.5t26.5 -42.5q6 -27 21.5 -81t35 -122t41 -143.5 t43 -146t41 -132t33.5 -100.5q20 53 43 127.5t44.5 155.5t42 160t36 142.5t24.5 104.5t9 43q4 23 21.5 38t46.5 15q33 0 49 -19t16 -48q0 -12 -4 -33q-8 -31 -24.5 -95.5t-38 -146.5t-47 -171t-49 -168t-45 -139t-34.5 -83q-14 -23 -37.5 -33t-52.5 -10q-20 0 -43.5 7 t-40.5 38q-8 16 -25.5 61.5t-39 105.5t-44 131t-43 140.5t-36.5 130.5q-16 29 -23 68q-8 -39 -22 -68q-16 -61 -36.5 -130.5t-43 -140.5t-44 -131t-39 -105.5t-25.5 -61.5q-16 -29 -39 -37t-45 -8q-27 0 -50.5 8t-40.5 35q-12 23 -33.5 83t-46 139t-49 168t-47 171 t-40 146.5t-23.5 95.5q-4 20 -4 35z" />
<glyph unicode="x" horiz-adv-x="808" d="M31 66q0 12 2 20t10 18l297 416q-86 109 -161 187.5t-105 111.5l-15 15q-8 10 -14 20t-6 27q0 29 22.5 47t47.5 18q12 0 23 -4t28 -18q29 -27 102.5 -105t159.5 -186l203 285q22 28 53 28h2q29 0 49.5 -19.5t20.5 -47.5q0 -16 -5.5 -25.5t-11.5 -17.5l-227 -310 q82 -109 150.5 -218t111.5 -204q10 -20 10 -38q0 -29 -19.5 -47.5t-47.5 -18.5q-29 0 -42.5 12.5t-19.5 26.5q-51 106 -110.5 200.5t-114.5 172.5l-270 -383q-10 -14 -26.5 -21.5t-29.5 -7.5q-29 0 -48 19.5t-19 46.5z" />
<glyph unicode="y" horiz-adv-x="862" d="M-223 -264q0 29 21.5 47t45.5 18q20 0 39 -14q33 -27 74 -50.5t121 -23.5q45 0 85 12.5t76.5 48.5t72.5 100.5t77 168.5q-10 6 -19.5 22.5t-19.5 32.5q-29 55 -62.5 131t-67.5 158t-64.5 163t-55 147.5t-41 110.5t-18.5 52q-2 4 -3 9t-1 16q0 31 20.5 46t48.5 15 q29 0 42.5 -15.5t21.5 -35.5q10 -29 38 -105.5t63.5 -171t74.5 -189.5t74 -163q8 -16 15.5 -29.5t15.5 -23.5q18 51 47.5 133t65.5 176t72 193.5t66 185.5q8 18 22.5 31.5t41.5 13.5q29 0 48.5 -18.5t19.5 -46.5q0 -10 -9 -31l-274 -756q-55 -152 -108.5 -251t-111 -157.5 t-119.5 -81t-134 -22.5q-57 0 -99 9.5t-75 22.5t-57.5 31.5t-45.5 37.5q-10 8 -17 21t-7 32z" />
<glyph unicode="z" horiz-adv-x="929" d="M92 68v14q0 16 5 28.5t12 22.5q14 27 47.5 77t80 110.5t100.5 129t108.5 135t102.5 127t85 103.5h-471q-29 0 -48.5 17.5t-19.5 46.5t19.5 48t48.5 19h573q68 0 68 -65v-17q0 -31 -23 -69q-25 -37 -66.5 -91.5t-93 -117t-106.5 -129t-104.5 -128t-89 -113.5t-60.5 -85 h510q31 0 49.5 -17.5t18.5 -45.5q0 -29 -18.5 -48.5t-49.5 -19.5h-612q-31 0 -48.5 19.5t-17.5 48.5z" />
<glyph unicode="{" horiz-adv-x="761" d="M154 549q0 27 9 39t19 20q6 4 14.5 8.5t16.5 13.5t14 25.5t6 40.5v418q0 113 79 164t196 51q35 0 68.5 -13t33.5 -54q0 -35 -23.5 -49.5t-58.5 -14.5q-31 0 -59.5 -4t-51 -14.5t-35.5 -27.5t-13 -44v-412q0 -55 -15.5 -91t-31.5 -56q16 -20 31.5 -54t15.5 -89v-414 q0 -27 13 -43.5t35.5 -26.5t51 -14t59.5 -4q35 0 57.5 -13.5t22.5 -48.5t-24.5 -52t-65.5 -17q-47 0 -97 8t-91 31.5t-69 64.5t-28 107v417q0 25 -6 40.5t-14 24.5t-16.5 14t-14.5 9q-10 8 -19 20.5t-9 39.5z" />
<glyph unicode="|" horiz-adv-x="536" d="M201 -66v1369q0 29 18.5 48t48.5 19q29 0 48.5 -19.5t19.5 -47.5v-1369q0 -29 -19.5 -48t-48.5 -19t-48 19.5t-19 47.5z" />
<glyph unicode="}" horiz-adv-x="761" d="M154 1262q0 41 33.5 54t68.5 13q117 0 195.5 -51t78.5 -164v-418q0 -25 6.5 -41t14.5 -25t16 -13.5t15 -8.5q10 -8 19 -20.5t9 -38.5q0 -27 -9 -39t-19 -21q-6 -4 -14.5 -9t-16.5 -14t-14.5 -24.5t-6.5 -40.5v-417q0 -66 -27.5 -107t-68.5 -64.5t-92 -31.5t-96 -8 q-41 0 -65.5 17t-24.5 52t22.5 48.5t57.5 13.5q31 0 59.5 4t51 14t35.5 26.5t13 43.5v414q0 55 15.5 88.5t31.5 54.5q-16 20 -31.5 56t-15.5 91v412q0 27 -13 44t-35.5 27.5t-51.5 14.5t-59 4q-35 0 -58.5 14.5t-23.5 49.5z" />
<glyph unicode="~" horiz-adv-x="800" d="M115 889q0 18 10 37q16 25 53 48t103 23q39 0 66.5 -7t54 -14t54 -14.5t66.5 -7.5q33 0 55.5 19.5t47.5 19.5t44 -15t19 -48q0 -17 -10 -31q-16 -25 -53 -48.5t-103 -23.5q-39 0 -66.5 7.5t-54 14.5t-54.5 14t-66 7q-16 0 -29.5 -6t-26 -13t-24 -13.5t-23.5 -6.5 q-25 0 -44 12.5t-19 45.5z" />
<glyph unicode="&#xa1;" horiz-adv-x="522" d="M195 -281v883q0 29 19 48.5t48 19.5t48.5 -19.5t19.5 -48.5v-883q0 -29 -19.5 -48t-48.5 -19t-48 19.5t-19 47.5zM195 840v69q0 29 19 47.5t48 18.5t48.5 -18.5t19.5 -47.5v-69q0 -29 -19.5 -48.5t-48.5 -19.5t-48 19.5t-19 48.5z" />
<glyph unicode="&#xa2;" horiz-adv-x="1286" d="M256 477q0 88 27.5 167t78 141.5t120 104.5t151.5 58v62q0 29 19.5 48t47.5 19q29 0 48.5 -19.5t19.5 -47.5v-54q119 -12 219 -75q29 -16 29 -58q0 -29 -18.5 -47t-47.5 -18q-23 0 -37 10q-41 29 -90 44t-96 15q-72 0 -132 -26.5t-105.5 -73.5t-70 -111.5t-24.5 -138.5 q0 -66 17.5 -130t52.5 -115.5t90 -82t133 -30.5q59 0 124 19.5t120 49.5q14 8 35 9q25 0 45 -18.5t20 -49.5q0 -16 -10 -31.5t-25 -25.5q-51 -29 -110.5 -48.5t-118.5 -29.5v-49q0 -29 -19.5 -48.5t-48.5 -19.5t-48 19.5t-19 48.5v47q-84 8 -153.5 47t-119 102.5t-77 148.5 t-27.5 187z" />
<glyph unicode="&#xa3;" horiz-adv-x="1366" d="M256 66q0 41 29 61q88 57 119.5 113.5t31.5 121.5q0 39 -5 91.5t-15 101.5h-86q-29 0 -48.5 19.5t-19.5 48.5t19.5 46t48.5 17h67q-2 25 -3 47.5t-1 46.5q0 135 34 232.5t88 161t123 94t140 30.5q35 0 83 -6t83 -28q10 -6 24.5 -19.5t14.5 -40.5q0 -23 -13.5 -43 t-39.5 -20q-16 0 -35 6q-27 10 -55.5 16t-61.5 6q-47 0 -92 -23.5t-80 -71.5t-56.5 -121.5t-21.5 -172.5q0 -45 7 -94h301q29 0 47 -17.5t18 -45.5q0 -29 -18.5 -48.5t-46.5 -19.5h-285l10 -61q4 -35 7 -68t3 -64q0 -90 -35.5 -149t-68.5 -82h575q29 0 48.5 -18.5 t19.5 -46.5q0 -29 -19.5 -47.5t-48.5 -18.5h-718q-29 0 -48.5 18.5t-19.5 47.5z" />
<glyph unicode="&#xa4;" horiz-adv-x="1177" d="M193 573q0 131 75 226l-35 35q-8 8 -14 19t-6 28q0 29 21.5 48t48.5 19q29 0 49 -18l35 -35q47 31 104 50.5t117 19.5q133 0 227 -70l35 35q12 12 23.5 15t23.5 3q27 0 47.5 -21.5t20.5 -49.5q0 -27 -17 -43l-37 -35q33 -47 52.5 -105.5t19.5 -120.5q0 -66 -19.5 -121 t-54.5 -102l33 -33q23 -23 23 -51q0 -27 -21.5 -47t-50.5 -20q-20 0 -35.5 12t-42.5 41q-47 -35 -105.5 -53.5t-121.5 -18.5q-133 0 -226 72q-27 -29 -42 -41t-35 -12q-29 0 -50.5 20.5t-21.5 46.5q0 27 23 49l32 31q-35 47 -55 105.5t-20 121.5zM332 573q0 -53 20.5 -100 t55 -83t81 -57.5t99.5 -21.5t100 21.5t82 57.5t54.5 83t19.5 100t-19.5 100.5t-54.5 83.5t-82 56.5t-100 20.5t-99.5 -20.5t-81 -56.5t-55 -83t-20.5 -101z" />
<glyph unicode="&#xa5;" horiz-adv-x="1390" d="M250 336q0 29 18.5 47t46.5 18h314v121h-314q-27 0 -46 18.5t-19 47.5t18.5 47t46.5 18h217q-41 76 -80.5 157t-74.5 156.5t-64.5 141.5t-50.5 109q-4 8 -7 17t-3 26q0 23 16.5 40t48.5 17q33 0 46.5 -15.5t23.5 -37.5q111 -231 178.5 -378t116.5 -233h25 q47 78 117.5 228.5t181.5 382.5q10 23 25.5 38t47.5 15q33 0 47.5 -20.5t14.5 -36.5t-3 -24.5t-8 -18.5q-20 -43 -49.5 -109t-65.5 -141.5t-77 -156.5t-82 -157h188q29 0 47.5 -18.5t18.5 -46.5q0 -29 -19.5 -47.5t-46.5 -18.5h-280v-121h280q29 0 47.5 -18t18.5 -47 t-18.5 -47.5t-47.5 -18.5h-280v-202q0 -29 -19.5 -48.5t-48.5 -19.5t-48 19.5t-19 48.5v202h-314q-29 0 -47 18.5t-18 47.5z" />
<glyph unicode="&#xa6;" horiz-adv-x="522" d="M195 68v485q0 29 19 48.5t48 19.5t48.5 -19.5t19.5 -48.5v-485q0 -29 -19.5 -48.5t-48.5 -19.5t-48 19.5t-19 48.5zM195 965v485q0 29 19 48.5t48 19.5t48.5 -19.5t19.5 -48.5v-485q0 -29 -19.5 -48.5t-48.5 -19.5t-48 19.5t-19 48.5z" />
<glyph unicode="&#xa7;" horiz-adv-x="1292" d="M297 -41q0 29 20.5 46.5t42.5 17.5q20 0 43 -13l30 -15t51.5 -22.5t66.5 -20.5t78 -9q92 0 139 50t47 113t-38 103.5t-95 71t-122.5 57.5t-123 63.5t-95.5 90t-38 137.5q0 92 60.5 157.5t140.5 100.5q-66 41 -111 95t-45 146q0 68 29 116t74 79t102 46t115 15 q74 0 141.5 -21.5t103.5 -41.5q39 -20 39 -61q0 -29 -18.5 -48.5t-44.5 -19.5q-16 0 -25.5 5t-21.5 11q-25 14 -74 33t-109 19q-27 0 -56.5 -6.5t-55 -19.5t-43 -36.5t-17.5 -60.5q0 -57 38 -94t95.5 -66t124 -57.5t123 -67.5t94 -96.5t37.5 -145.5q0 -86 -45 -149.5 t-131 -102.5q55 -39 93 -95t38 -142q0 -59 -23.5 -113.5t-68.5 -96.5t-107.5 -67.5t-138.5 -25.5q-55 0 -105 11t-89 25.5t-64.5 29t-31.5 18.5q-29 18 -29 57zM438 637q0 -43 21.5 -74t57.5 -54.5t82 -44t95 -40.5q70 20 120 63t50 109q0 45 -18.5 78t-50 58.5t-72.5 46 t-86 40.5q-35 -10 -70 -26.5t-63.5 -39t-47 -52t-18.5 -64.5z" />
<glyph unicode="&#xa8;" horiz-adv-x="620" d="M113 1157v70q0 29 19.5 47t47.5 18q29 0 48.5 -18.5t19.5 -46.5v-70q0 -29 -19.5 -48t-48.5 -19t-48 19t-19 48zM373 1157v70q0 29 19.5 47t47.5 18q29 0 48.5 -18.5t19.5 -46.5v-70q0 -29 -19.5 -48t-48.5 -19t-48 19t-19 48z" />
<glyph unicode="&#xa9;" horiz-adv-x="1724" d="M195 838q0 137 52 259t143 212t212 143t258 53q139 0 261 -53t213 -143t144.5 -212t53.5 -259q0 -139 -53.5 -260t-144.5 -212.5t-213 -143.5t-261 -52q-137 0 -258 52t-212 143.5t-143 212t-52 260.5zM295 838q0 -117 45 -221.5t122 -182.5t179 -123t219 -45t221.5 45 t182 123t123 182.5t45.5 221.5t-45.5 220t-123 181t-182 123t-221.5 45t-219 -45t-179 -123t-122 -181.5t-45 -219.5zM537 850q0 80 24.5 148.5t69.5 117.5t105.5 78t131.5 29q78 0 132 -20t81 -40q23 -20 23 -43q0 -18 -15.5 -32.5t-33.5 -14.5q-4 0 -11.5 1t-15.5 5 q-25 16 -62.5 31.5t-97.5 15.5q-49 0 -91 -21.5t-72.5 -58t-48 -88t-17.5 -108.5q0 -119 60.5 -198t156.5 -79q47 0 87 12.5t79 35.5q4 4 12 5t15 1q23 0 37 -13.5t14 -35.5q0 -16 -7.5 -25.5t-11.5 -13.5q-53 -35 -108 -48.5t-117 -13.5q-70 0 -128 27.5t-101 78t-66.5 119 t-23.5 148.5z" />
<glyph unicode="&#xaa;" horiz-adv-x="1134" d="M266 815q0 115 79 167t230 52h101v68q0 47 -33 74.5t-86 27.5q-41 0 -69.5 -7t-50 -16.5t-38 -16.5t-30.5 -7q-29 0 -48.5 19.5t-19.5 46.5q0 14 8 28q20 33 82 58.5t166 25.5q88 0 139.5 -34.5t77 -77.5t31.5 -80t6 -41v-352q0 -10 8 -18.5t18.5 -16.5t18.5 -19.5 t8 -29.5q0 -72 -67 -72q-10 0 -37 9t-45 38q-37 -25 -83 -41t-97 -16q-49 0 -96.5 13t-86.5 42t-62.5 73t-23.5 103zM406 815q0 -53 40.5 -78.5t88.5 -25.5q94 0 141 49v158h-101q-170 0 -169 -103z" />
<glyph unicode="&#xab;" horiz-adv-x="903" d="M133 469q0 20 10 37l203 295q23 27 55 26q29 0 48.5 -18t19.5 -47q0 -18 -14 -39l-179 -254l183 -268q12 -23 12 -37q0 -29 -21.5 -48.5t-50.5 -19.5q-31 0 -53 29l-205 309q-4 6 -6 14.5t-2 20.5zM432 469q0 20 10 37l203 295q23 27 55 26q29 0 48.5 -18t19.5 -47 q0 -18 -14 -39l-179 -254l183 -268q12 -23 12 -37q0 -29 -20.5 -48.5t-49.5 -19.5q-33 0 -55 29l-205 309q-4 6 -6 14.5t-2 20.5z" />
<glyph unicode="&#xac;" horiz-adv-x="1228" d="M160 485q0 29 19.5 46.5t47.5 17.5h772q29 0 48.5 -17.5t19.5 -46.5v-258q0 -29 -19.5 -48t-48.5 -19t-48 19.5t-19 47.5v191h-705q-29 0 -48 19.5t-19 47.5z" />
<glyph unicode="&#xad;" horiz-adv-x="899" d="M154 483q0 29 19.5 47.5t47.5 18.5h457q29 0 48 -18.5t19 -47.5t-19 -47t-48 -18h-457q-29 0 -48 18.5t-19 46.5z" />
<glyph unicode="&#xae;" horiz-adv-x="1724" d="M195 838q0 137 52 259t143 212t212 143t260 53t261 -53t213 -143t143.5 -212t52.5 -259q0 -139 -52.5 -260t-143.5 -212.5t-213 -143.5t-261 -52t-260 52t-212 143.5t-143 212t-52 260.5zM295 838q0 -117 45 -221.5t122 -182.5t180 -123t220 -45t221.5 45t181 123 t122 182.5t45.5 221.5t-45.5 220t-122 181t-181 123t-221.5 45t-220 -45t-180 -123t-122 -181.5t-45 -219.5zM647 535v634q0 23 14.5 37.5t34.5 14.5h164q96 0 158.5 -56.5t62.5 -144.5q0 -51 -15 -86t-35.5 -56.5t-41 -30.5t-28.5 -11q47 -41 82.5 -112t68.5 -173 q2 -4 2 -10v-9q0 -20 -13.5 -33.5t-35.5 -13.5q-16 0 -29.5 9.5t-17.5 27.5q-41 135 -93.5 211t-101.5 76h-78v-274q0 -23 -11 -36.5t-38 -13.5q-23 0 -36 13.5t-13 36.5zM745 903h115q10 0 30.5 3t40 15.5t34 35t14.5 63.5q0 45 -33 74.5t-86 29.5h-115v-221z" />
<glyph unicode="&#xaf;" horiz-adv-x="817" d="M113 1157q0 29 19.5 46.5t47.5 17.5h457q29 0 48.5 -17.5t19.5 -46.5t-19.5 -48t-48.5 -19h-457q-29 0 -48 19t-19 48z" />
<glyph unicode="&#xb0;" horiz-adv-x="931" d="M152 885q0 82 22.5 148.5t62 114.5t97 74.5t129.5 26.5q70 0 129 -26.5t101 -74.5t65.5 -114.5t23.5 -148.5q0 -172 -86 -266.5t-233 -94.5q-145 0 -228 94.5t-83 266.5zM291 885q0 -106 46 -169t126 -63q84 0 132 62.5t48 169.5q0 43 -10 85t-32.5 75.5t-56.5 54 t-81 20.5t-80 -21.5t-53.5 -56t-29.5 -76.5t-9 -81z" />
<glyph unicode="&#xb1;" horiz-adv-x="1228" d="M184 66q0 29 19.5 47t48.5 18h725q29 0 48 -18.5t19 -46.5q0 -29 -19 -47.5t-48 -18.5h-725q-29 0 -48.5 18.5t-19.5 47.5zM184 649q0 29 19.5 46.5t48.5 17.5h295v297q0 29 19.5 48t47.5 19q29 0 48.5 -19.5t19.5 -47.5v-297h295q29 0 48 -17.5t19 -46.5t-19 -48 t-48 -19h-295v-297q0 -29 -19.5 -48.5t-48.5 -19.5t-48 19.5t-19 48.5v297h-295q-29 0 -48.5 19.5t-19.5 47.5z" />
<glyph unicode="&#xb2;" horiz-adv-x="825" d="M186 668q0 33 14.5 64.5t38 63t52 62.5t59.5 62q57 57 103.5 110t46.5 94q0 31 -10.5 51.5t-25.5 31t-33.5 14.5t-33.5 4q-41 0 -69.5 -13.5t-38.5 -21.5q-4 -4 -13.5 -8t-23.5 -4q-20 0 -33.5 15t-13.5 36q0 25 24 43q16 12 58.5 31.5t109.5 19.5q23 0 59 -6t68.5 -25.5 t56 -59.5t23.5 -108q0 -37 -15.5 -71.5t-40 -68.5t-56 -66.5t-64.5 -63.5q-39 -37 -70.5 -73t-50.5 -64h248q51 0 51 -49t-51 -50h-319q-16 0 -33 13.5t-17 36.5z" />
<glyph unicode="&#xb3;" horiz-adv-x="839" d="M188 709q0 23 16.5 36t35.5 13q18 0 41 -17q12 -10 40.5 -20t77.5 -10q51 0 86 31.5t35 74.5q0 59 -44 83t-95 24h-29q-23 0 -36 12t-13 37q0 23 13.5 36t35.5 13h29q47 0 87 24.5t40 77.5q0 33 -12.5 53.5t-31 31t-36.5 13.5t-31 3q-37 0 -64.5 -13.5t-41.5 -23.5 q-4 -4 -12.5 -7t-18.5 -3q-18 0 -33.5 14t-15.5 37q0 14 6 24.5t14 14.5q10 8 54.5 31.5t111.5 23.5q41 0 80 -10t68.5 -34t48 -60.5t18.5 -90.5q0 -49 -20.5 -92t-61.5 -61q41 -18 68 -63.5t27 -92.5q0 -45 -18.5 -83t-49.5 -65.5t-72 -43t-86 -15.5q-49 0 -84.5 8.5 t-59.5 18.5t-36 19.5t-14 11.5q-6 6 -11.5 14t-5.5 25z" />
<glyph unicode="&#xb4;" horiz-adv-x="686" d="M113 1151q0 47 43 63l325 138q10 4 14.5 5t12.5 1q29 0 48 -17.5t19 -46.5t-13 -41t-30 -20l-327 -137q-16 -6 -27 -6q-27 0 -46 16t-19 45z" />
<glyph unicode="&#xb5;" horiz-adv-x="1015" d="M154 -156v1039q0 29 19.5 47t47.5 18q29 0 48.5 -18.5t19.5 -46.5v-543q0 -63 12 -106.5t39 -69t70 -35.5t106 -10q37 0 72 9t63.5 21.5t49 25.5t30.5 22v686q0 29 19.5 47t48.5 18t48 -18.5t19 -46.5v-815q0 -29 -17 -48.5t-46 -19.5t-46.5 17.5t-17.5 39.5 q-41 -27 -96 -48t-127 -21q-115 0 -168 28q-49 16 -59 35v-207q0 -29 -19.5 -48t-48.5 -19t-48 19.5t-19 47.5z" />
<glyph unicode="&#xb6;" horiz-adv-x="1271" d="M154 963q0 76 28.5 140t79.5 112.5t121 75t149 26.5h519q29 0 48 -18.5t19 -47.5t-19.5 -47t-47.5 -18h-37v-1290q0 -29 -19.5 -48.5t-48.5 -19.5t-48 19.5t-19 48.5v1290h-105v-1290q0 -29 -19.5 -48.5t-47.5 -19.5q-29 0 -48.5 19.5t-19.5 48.5v679h-107 q-66 0 -133 20.5t-121.5 67t-89 120t-34.5 180.5z" />
<glyph unicode="&#xb7;" horiz-adv-x="479" d="M154 545q0 39 24.5 63.5t61.5 24.5t61.5 -24.5t24.5 -63.5q0 -37 -24.5 -60.5t-61.5 -23.5t-61.5 23.5t-24.5 60.5z" />
<glyph unicode="&#xb8;" horiz-adv-x="546" d="M113 -166q0 16 4 33l35 158q4 20 13 26t23 6q23 0 28 -11t5 -28q0 -2 -4 -18t-9 -35.5t-9 -38t-6 -24.5q12 4 35.5 9t45.5 5q66 0 113 -46t47 -126q0 -47 -17.5 -82t-45 -58.5t-63.5 -34.5t-70 -11q-55 0 -85 18t-30 45q0 45 47 45q10 0 25.5 -6t48.5 -6q29 0 60.5 23.5 t31.5 66.5q0 41 -20.5 60.5t-49.5 19.5t-45 -4t-26 -8l-19 -11q-8 -4 -20 -4q-18 0 -30.5 10.5t-12.5 26.5z" />
<glyph unicode="&#xb9;" horiz-adv-x="634" d="M156 1192q0 12 7 24.5t17 18.5l107 72q4 4 12 7t20 3q18 0 34 -13.5t16 -39.5v-592q0 -23 -14.5 -38.5t-37.5 -15.5t-37 15.5t-14 38.5v499l-41 -24q-10 -6 -22 -6q-18 0 -32.5 13t-14.5 38z" />
<glyph unicode="&#xba;" horiz-adv-x="1181" d="M266 954q0 86 24.5 156t67.5 120t102.5 77.5t131.5 27.5q70 0 129 -27.5t102 -77.5t67.5 -120t24.5 -156q0 -174 -86.5 -272t-236.5 -98q-72 0 -131.5 26.5t-102.5 75.5t-67.5 117.5t-24.5 150.5zM406 954q0 -109 50 -174t136 -65t135 64.5t49 174.5q0 115 -49 182.5 t-135 67.5t-136 -68.5t-50 -181.5z" />
<glyph unicode="&#xbb;" horiz-adv-x="903" d="M133 164q0 10 2 18t10 19l181 268l-179 254q-14 20 -14 39q0 29 19.5 47t48.5 18q35 0 55 -26l205 -295q10 -20 10 -37q0 -20 -10 -35l-205 -309q-10 -14 -24.5 -21.5t-28.5 -7.5q-29 0 -49.5 19.5t-20.5 48.5zM432 164q0 14 12 37l181 268l-179 254q-8 10 -10 20.5 t-2 18.5q0 29 18.5 47t47.5 18q35 0 57 -26l203 -295q10 -20 10 -37q0 -20 -10 -35l-203 -309q-23 -29 -55 -29q-29 0 -49.5 19.5t-20.5 48.5z" />
<glyph unicode="&#xbc;" horiz-adv-x="1546" d="M260 1192q0 12 7 24.5t18 18.5l106 72q4 4 12.5 7t20.5 3q18 0 33.5 -13.5t15.5 -39.5v-592q0 -23 -14 -38.5t-37 -15.5t-37 15.5t-14 38.5v499l-41 -24q-10 -6 -23 -6q-18 0 -32.5 13t-14.5 38zM287 43q0 16 5 28.5t9 18.5l829 1213q16 27 54 26q20 0 32.5 -14.5 t12.5 -28.5q0 -29 -15 -47l-829 -1212q-16 -27 -53 -27q-20 0 -32.5 14.5t-12.5 28.5zM780 215q0 4 1 8t5 17q41 90 93.5 169.5t98.5 139t79 94.5t37 39q14 16 41 16q23 0 36 -15t13 -32q0 -25 -17 -41l-28 -28q-27 -29 -66 -76t-84 -109.5t-82 -132.5h180v137 q0 25 14.5 39.5t37.5 14.5q20 0 35.5 -14.5t15.5 -39.5v-137h27q55 0 55 -49q0 -23 -14.5 -36t-40.5 -13h-27v-113q0 -23 -15.5 -38t-35.5 -15q-23 0 -37.5 15.5t-14.5 37.5v113h-256q-29 0 -40 15.5t-11 33.5z" />
<glyph unicode="&#xbd;" horiz-adv-x="1656" d="M260 1192q0 12 7 24.5t18 18.5l106 72q4 4 12.5 7t20.5 3q18 0 33.5 -13.5t15.5 -39.5v-592q0 -23 -14 -38.5t-37 -15.5t-37 15.5t-14 38.5v499l-41 -24q-10 -6 -23 -6q-18 0 -32.5 13t-14.5 38zM287 43q0 16 5 28.5t9 18.5l829 1213q16 27 54 26q20 0 32.5 -14.5 t12.5 -28.5q0 -29 -15 -47l-829 -1212q-16 -27 -53 -27q-20 0 -32.5 14.5t-12.5 28.5zM965 49q0 33 14 64.5t37.5 63.5t52.5 62.5t59 61.5q57 57 103.5 110.5t46.5 94.5q0 31 -10.5 51.5t-25.5 30.5t-33.5 14t-32.5 4q-41 0 -70 -13t-39 -22q-4 -4 -13.5 -8t-23.5 -4 q-20 0 -33.5 15.5t-13.5 35.5q0 25 25 43q16 12 58 32t110 20q23 0 58.5 -6.5t68 -26t56 -59.5t23.5 -107q0 -37 -15 -72t-39.5 -68.5t-56.5 -66.5t-65 -63q-39 -37 -70.5 -73t-50.5 -65h248q51 0 51 -49t-51 -49h-319q-16 0 -32.5 13.5t-16.5 35.5z" />
<glyph unicode="&#xbe;" horiz-adv-x="1671" d="M188 709q0 23 16.5 36t35.5 13q18 0 41 -17q12 -10 40.5 -20t77.5 -10q51 0 86 31.5t35 74.5q0 59 -44 83t-95 24h-29q-23 0 -36 12t-13 37q0 23 13.5 36t35.5 13h29q47 0 87 24.5t40 77.5q0 33 -12.5 53.5t-31 31t-36.5 13.5t-31 3q-37 0 -64.5 -13.5t-41.5 -23.5 q-4 -4 -12.5 -7t-18.5 -3q-18 0 -33.5 14t-15.5 37q0 14 6 24.5t14 14.5q10 8 54.5 31.5t111.5 23.5q41 0 80 -10t68.5 -34t48 -60.5t18.5 -90.5q0 -49 -20.5 -92t-61.5 -61q41 -18 68 -63.5t27 -92.5q0 -45 -18.5 -83t-49.5 -65.5t-72 -43t-86 -15.5q-49 0 -84.5 8.5 t-59.5 18.5t-36 19.5t-14 11.5q-6 6 -11.5 14t-5.5 25zM399 43q0 16 5.5 28.5t9.5 18.5l829 1213q16 27 53 26q20 0 32.5 -14.5t12.5 -28.5q0 -29 -14 -47l-829 -1212q-16 -27 -54 -27q-20 0 -32.5 14.5t-12.5 28.5zM903 215q0 4 1 8t5 17q41 90 93.5 169.5t98.5 139 t78.5 94.5t37.5 39q14 16 40 16q23 0 36.5 -15t13.5 -32q0 -25 -17 -41l-28 -28q-27 -29 -66 -76t-84 -109.5t-82 -132.5h180v137q0 25 14.5 39.5t37.5 14.5q20 0 35.5 -14.5t15.5 -39.5v-137h26q55 0 56 -49q0 -23 -14.5 -36t-41.5 -13h-26v-113q0 -23 -15.5 -38t-35.5 -15 q-23 0 -37.5 15.5t-14.5 37.5v113h-256q-29 0 -40 15.5t-11 33.5z" />
<glyph unicode="&#xbf;" horiz-adv-x="1046" d="M168 37q0 78 26.5 130t66.5 91t86 69.5t86 68.5t66.5 87t26.5 123q0 29 19.5 48.5t48.5 19.5t48.5 -19.5t19.5 -48.5q0 -88 -27 -149.5t-66 -105.5t-85 -77.5t-85 -67.5t-65.5 -73t-26.5 -96q0 -111 65.5 -182.5t170.5 -71.5q41 0 77.5 10t65.5 22.5t49.5 26t28.5 19.5 q20 14 45 14q29 0 47 -20.5t18 -49.5q1 -29 -26 -49q-2 -2 -24.5 -18.5t-61.5 -35.5t-94.5 -34.5t-124.5 -15.5q-80 0 -148.5 28.5t-119 80t-79 122t-28.5 154.5zM526 840v69q0 29 19.5 47.5t48.5 18.5t48.5 -18.5t19.5 -47.5v-69q0 -29 -19.5 -48.5t-48.5 -19.5t-48.5 19.5 t-19.5 48.5z" />
<glyph unicode="&#xc0;" horiz-adv-x="1157" d="M51 61q0 6 2 15.5t4 15.5q2 8 24.5 80t57.5 180.5t79 240.5t90 260t90 238.5t81 178.5q23 47 99 47q35 0 62.5 -10.5t37.5 -38.5q31 -63 73 -171t88 -234t91 -256t81 -239.5t60.5 -184.5t30.5 -91q2 -6 4 -15t2 -16q0 -27 -17.5 -44t-52.5 -17q-27 0 -39 11.5t-20 33.5 q-16 45 -45 137t-70 209h-573q-39 -117 -65.5 -209t-43.5 -137q-14 -45 -65 -45q-35 0 -50.5 17.5t-15.5 43.5zM285 1702q0 31 17 49t44 18q8 0 21 -4l331 -137q45 -20 45 -63q0 -27 -16 -46.5t-45 -19.5q-14 0 -31 8l-321 133q-16 8 -30.5 22.5t-14.5 39.5zM336 522h485 q-53 162 -112.5 326t-130.5 332q-72 -168 -130.5 -332t-111.5 -326z" />
<glyph unicode="&#xc1;" horiz-adv-x="1157" d="M51 61q0 6 2 15.5t4 15.5q2 8 24.5 80t57.5 180.5t79 240.5t90 260t90 238.5t81 178.5q23 47 99 47q35 0 62.5 -10.5t37.5 -38.5q31 -63 73 -171t88 -234t91 -256t81 -239.5t60.5 -184.5t30.5 -91q2 -6 4 -15t2 -16q0 -27 -17.5 -44t-52.5 -17q-27 0 -39 11.5t-20 33.5 q-16 45 -45 137t-70 209h-573q-39 -117 -65.5 -209t-43.5 -137q-14 -45 -65 -45q-35 0 -50.5 17.5t-15.5 43.5zM336 522h485q-53 162 -112.5 326t-130.5 332q-72 -168 -130.5 -332t-111.5 -326zM410 1561q0 47 43 63l325 137q10 4 14.5 5t12.5 1q29 0 48 -17t19 -46t-13 -41 t-30 -21l-327 -137q-16 -6 -27 -6q-27 0 -46 16.5t-19 45.5z" />
<glyph unicode="&#xc2;" horiz-adv-x="1157" d="M51 61q0 6 2 15.5t4 15.5q2 8 24.5 80t57.5 180.5t79 240.5t90 260t90 238.5t81 178.5q23 47 99 47q35 0 62.5 -10.5t37.5 -38.5q31 -63 73 -171t88 -234t91 -256t81 -239.5t60.5 -184.5t30.5 -91q2 -6 4 -15t2 -16q0 -27 -17.5 -44t-52.5 -17q-27 0 -39 11.5t-20 33.5 q-16 45 -45 137t-70 209h-573q-39 -117 -65.5 -209t-43.5 -137q-14 -45 -65 -45q-35 0 -50.5 17.5t-15.5 43.5zM264 1563q0 14 7.5 30.5t27.5 26.5l248 131q16 10 33 10q16 0 32 -10l250 -133q16 -8 23.5 -25.5t7.5 -29.5q0 -29 -19.5 -46.5t-48.5 -17.5q-16 0 -32 10 l-213 113l-215 -113q-20 -10 -35 -10q-29 0 -47.5 18.5t-18.5 45.5zM336 522h485q-53 162 -112.5 326t-130.5 332q-72 -168 -130.5 -332t-111.5 -326z" />
<glyph unicode="&#xc3;" horiz-adv-x="1157" d="M51 61q0 6 2 15.5t4 15.5q2 8 24.5 80t57.5 180.5t79 240.5t90 260t90 238.5t81 178.5q23 47 99 47q35 0 62.5 -10.5t37.5 -38.5q31 -63 73 -171t88 -234t91 -256t81 -239.5t60.5 -184.5t30.5 -91q2 -6 4 -15t2 -16q0 -27 -17.5 -44t-52.5 -17q-27 0 -39 11.5t-20 33.5 q-16 45 -45 137t-70 209h-573q-39 -117 -65.5 -209t-43.5 -137q-14 -45 -65 -45q-35 0 -50.5 17.5t-15.5 43.5zM295 1561q0 23 10 41q16 25 53 48t103 23q39 0 66.5 -7t54 -14t54.5 -14.5t66 -7.5q33 0 55.5 19.5t47.5 19.5t44 -15.5t19 -47.5q0 -21 -10 -35 q-16 -25 -53 -48.5t-103 -23.5q-39 0 -66.5 7t-54 14.5t-54 14.5t-66.5 7q-16 0 -29.5 -6t-26 -13t-23.5 -13.5t-24 -6.5q-25 0 -44 12.5t-19 45.5zM336 522h485q-53 162 -112.5 326t-130.5 332q-72 -168 -130.5 -332t-111.5 -326z" />
<glyph unicode="&#xc4;" horiz-adv-x="1157" d="M51 61q0 6 2 15.5t4 15.5q2 8 24.5 80t57.5 180.5t79 240.5t90 260t90 238.5t81 178.5q23 47 99 47q35 0 62.5 -10.5t37.5 -38.5q31 -63 73 -171t88 -234t91 -256t81 -239.5t60.5 -184.5t30.5 -91q2 -6 4 -15t2 -16q0 -27 -17.5 -44t-52.5 -17q-27 0 -39 11.5t-20 33.5 q-16 45 -45 137t-70 209h-573q-39 -117 -65.5 -209t-43.5 -137q-14 -45 -65 -45q-35 0 -50.5 17.5t-15.5 43.5zM336 522h485q-53 162 -112.5 326t-130.5 332q-72 -168 -130.5 -332t-111.5 -326zM381 1567v69q0 29 19.5 47.5t48.5 18.5t48 -18.5t19 -47.5v-69 q0 -29 -19.5 -48.5t-47.5 -19.5q-29 0 -48.5 19.5t-19.5 48.5zM641 1567v69q0 29 19.5 47.5t48.5 18.5t48 -18.5t19 -47.5v-69q0 -29 -19.5 -48.5t-47.5 -19.5q-29 0 -48.5 19.5t-19.5 48.5z" />
<glyph unicode="&#xc5;" horiz-adv-x="1157" d="M51 61q0 6 2 15.5t4 15.5q2 8 24.5 80t57.5 180.5t79 240.5t90 260t90 238.5t81 178.5q23 47 99 47q35 0 62.5 -10.5t37.5 -38.5q31 -63 73 -171t88 -234t91 -256t81 -239.5t60.5 -184.5t30.5 -91q2 -6 4 -15t2 -16q0 -27 -17.5 -44t-52.5 -17q-27 0 -39 11.5t-20 33.5 q-16 45 -45 137t-70 209h-573q-39 -117 -65.5 -209t-43.5 -137q-14 -45 -65 -45q-35 0 -50.5 17.5t-15.5 43.5zM336 522h485q-53 162 -112.5 326t-130.5 332q-72 -168 -130.5 -332t-111.5 -326zM414 1673q0 74 50 123t124 49t124 -49t50 -123t-50 -123t-124 -49t-124 49 t-50 123zM508 1675q0 -33 23.5 -56.5t56.5 -23.5t56.5 23.5t23.5 56.5t-23.5 54.5t-56.5 21.5t-56.5 -21.5t-23.5 -54.5z" />
<glyph unicode="&#xc6;" horiz-adv-x="1613" d="M51 63q0 20 8 37q8 18 44 96t89.5 188t117 240t126 253.5t118.5 229t93 167.5q10 18 36 30.5t54 12.5h637q29 0 48.5 -17.5t19.5 -46.5t-19.5 -48t-48.5 -19h-487q20 -96 37.5 -208t27.5 -220h387q29 0 48.5 -18.5t19.5 -47.5t-19.5 -47t-48.5 -18h-372q8 -84 14 -160 t9 -139.5t5 -110.5t2 -74v-12h416q29 0 48.5 -18.5t19.5 -46.5q0 -29 -19.5 -47.5t-48.5 -18.5h-483q-31 0 -49.5 18.5t-18.5 49.5t-1 85t-5 126.5t-10 159.5t-15 186q-139 -6 -264 -51.5t-205 -153.5l-184 -383q-20 -37 -61 -37q-33 0 -49.5 19.5t-16.5 43.5zM467 645 q47 39 139 72t211 37q-10 104 -26.5 214.5t-40.5 217.5q-10 0 -13.5 -4t-5.5 -8q-10 -16 -39 -74l-67 -135q-39 -78 -81 -164t-77 -156z" />
<glyph unicode="&#xc7;" horiz-adv-x="1230" d="M113 657q0 143 46 266.5t126 213.5t188.5 141t235.5 51q80 0 142 -12t110.5 -28.5t80 -36t48.5 -31.5q29 -25 28 -58q0 -29 -21.5 -47t-43.5 -18q-23 0 -41 14q-4 4 -25.5 17.5t-58.5 29t-92.5 27.5t-126.5 12q-98 0 -182.5 -42t-144.5 -114.5t-95 -171t-35 -213.5 q0 -117 32.5 -215t90 -169.5t137.5 -112.5t176 -41q86 0 163 22.5t150 63.5q6 4 15.5 7t19.5 3q29 0 48.5 -20.5t19.5 -49.5q0 -37 -29 -53q-98 -51 -190 -77.5t-197 -26.5h-14q-6 -23 -13.5 -49.5t-9.5 -36.5q12 4 36 9t46 5q66 0 113 -46t47 -126q0 -47 -17.5 -82 t-45 -58.5t-63.5 -34.5t-71 -11q-55 0 -84.5 18t-29.5 45q0 45 47 45q10 0 25.5 -6t47.5 -6q29 0 61 23.5t32 66.5q0 41 -20.5 60.5t-49.5 19.5t-45 -4t-27 -8l-18 -11q-8 -4 -21 -4q-18 0 -30.5 10.5t-12.5 26.5t4 33l27 129q-106 16 -196.5 71.5t-155 142.5t-101 200.5 t-36.5 246.5z" />
<glyph unicode="&#xc8;" horiz-adv-x="1026" d="M195 66v1187q0 29 19 46.5t48 17.5h535q29 0 48 -17.5t19 -46.5t-19.5 -48t-47.5 -19h-467v-428h432q29 0 48 -18.5t19 -47.5t-19 -47t-48 -18h-432v-496h506q29 0 48 -18.5t19 -46.5q0 -29 -19.5 -47.5t-47.5 -18.5h-574q-29 0 -48 18.5t-19 47.5zM272 1702 q0 31 17.5 49t44.5 18q8 0 20 -4l332 -137q45 -20 45 -63q0 -27 -16 -46.5t-45 -19.5q-14 0 -31 8l-322 133q-16 8 -30.5 22.5t-14.5 39.5z" />
<glyph unicode="&#xc9;" horiz-adv-x="1026" d="M195 66v1187q0 29 19 46.5t48 17.5h535q29 0 48 -17.5t19 -46.5t-19.5 -48t-47.5 -19h-467v-428h432q29 0 48 -18.5t19 -47.5t-19 -47t-48 -18h-432v-496h506q29 0 48 -18.5t19 -46.5q0 -29 -19.5 -47.5t-47.5 -18.5h-574q-29 0 -48 18.5t-19 47.5zM307 1561q0 47 43 63 l326 137q10 4 14 5t12 1q29 0 48.5 -17t19.5 -46t-13.5 -41t-29.5 -21l-328 -137q-16 -6 -26 -6q-27 0 -46.5 16.5t-19.5 45.5z" />
<glyph unicode="&#xca;" horiz-adv-x="1026" d="M195 66v1187q0 29 19 46.5t48 17.5h535q29 0 48 -17.5t19 -46.5t-19.5 -48t-47.5 -19h-467v-428h432q29 0 48 -18.5t19 -47.5t-19 -47t-48 -18h-432v-496h506q29 0 48 -18.5t19 -46.5q0 -29 -19.5 -47.5t-47.5 -18.5h-574q-29 0 -48 18.5t-19 47.5zM209 1563q0 14 7 30.5 t28 26.5l248 131q16 10 32 10t33 -10l250 -133q16 -8 23.5 -25.5t7.5 -29.5q0 -29 -19.5 -46.5t-48.5 -17.5q-16 0 -33 10l-213 113l-215 -113q-20 -10 -35 -10q-29 0 -47 18.5t-18 45.5z" />
<glyph unicode="&#xcb;" horiz-adv-x="1026" d="M195 66v1187q0 29 19 46.5t48 17.5h535q29 0 48 -17.5t19 -46.5t-19.5 -48t-47.5 -19h-467v-428h432q29 0 48 -18.5t19 -47.5t-19 -47t-48 -18h-432v-496h506q29 0 48 -18.5t19 -46.5q0 -29 -19.5 -47.5t-47.5 -18.5h-574q-29 0 -48 18.5t-19 47.5zM334 1567v69 q0 29 19.5 47.5t47.5 18.5q29 0 48.5 -18.5t19.5 -47.5v-69q0 -29 -19.5 -48.5t-48.5 -19.5t-48 19.5t-19 48.5zM594 1567v69q0 29 19.5 47.5t48.5 18.5t48 -18.5t19 -47.5v-69q0 -29 -19.5 -48.5t-47.5 -19.5q-29 0 -48.5 19.5t-19.5 48.5z" />
<glyph unicode="&#xcc;" horiz-adv-x="522" d="M-33 1702q0 31 17.5 49t44.5 18q8 0 20 -4l332 -137q45 -20 45 -63q0 -27 -16 -46.5t-45 -19.5q-14 0 -31 8l-322 133q-16 8 -30.5 22.5t-14.5 39.5zM195 68v1181q0 29 19 48.5t48 19.5t48.5 -19.5t19.5 -48.5v-1181q0 -29 -19.5 -48.5t-48.5 -19.5t-48 19.5t-19 48.5z " />
<glyph unicode="&#xcd;" horiz-adv-x="522" d="M90 1561q0 47 43 63l326 137q10 4 14 5t12 1q29 0 48.5 -17t19.5 -46t-13.5 -41t-29.5 -21l-328 -137q-16 -6 -26 -6q-27 0 -46.5 16.5t-19.5 45.5zM195 68v1181q0 29 19 48.5t48 19.5t48.5 -19.5t19.5 -48.5v-1181q0 -29 -19.5 -48.5t-48.5 -19.5t-48 19.5t-19 48.5z " />
<glyph unicode="&#xce;" horiz-adv-x="522" d="M-53 1563q0 14 7 30.5t28 26.5l247 131q16 10 33 10q16 0 33 -10l250 -133q16 -8 23 -25.5t7 -29.5q0 -29 -19 -46.5t-48 -17.5q-16 0 -33 10l-213 113l-215 -113q-20 -10 -35 -10q-29 0 -47 18.5t-18 45.5zM195 68v1181q0 29 19 48.5t48 19.5t48.5 -19.5t19.5 -48.5 v-1181q0 -29 -19.5 -48.5t-48.5 -19.5t-48 19.5t-19 48.5z" />
<glyph unicode="&#xcf;" horiz-adv-x="522" d="M68 1567v69q0 29 19 47.5t48 18.5t48.5 -18.5t19.5 -47.5v-69q0 -29 -19.5 -48.5t-48.5 -19.5t-48 19.5t-19 48.5zM195 68v1181q0 29 19 48.5t48 19.5t48.5 -19.5t19.5 -48.5v-1181q0 -29 -19.5 -48.5t-48.5 -19.5t-48 19.5t-19 48.5zM328 1567v69q0 29 19.5 47.5 t47.5 18.5q29 0 48.5 -18.5t19.5 -47.5v-69q0 -29 -19.5 -48.5t-48.5 -19.5t-48 19.5t-19 48.5z" />
<glyph unicode="&#xd0;" horiz-adv-x="1388" d="M92 684q0 29 19.5 46.5t48.5 17.5h106v501q0 29 18.5 48.5t47.5 19.5h360q129 0 236.5 -49t184.5 -138.5t120 -211t43 -265.5q0 -143 -42 -263t-119 -207t-184.5 -135t-238.5 -48h-360q-29 0 -47.5 19.5t-18.5 48.5v548h-106q-29 0 -48.5 19.5t-19.5 48.5zM401 131h291 q100 0 183 38t140.5 107.5t89.5 166t32 210.5q0 117 -32 214.5t-90.5 168t-140 110.5t-182.5 40h-291v-438h322q29 0 48.5 -17.5t19.5 -46.5t-19.5 -48.5t-48.5 -19.5h-322v-485z" />
<glyph unicode="&#xd1;" horiz-adv-x="1259" d="M195 68v1181q0 29 19 48.5t48 19.5h25q16 0 39.5 -5t44.5 -24q33 -33 72.5 -96.5t82.5 -147t88 -181t88 -195.5q66 -150 124.5 -273t105.5 -196v1050q0 29 19.5 48.5t49.5 19.5q29 0 47.5 -19.5t18.5 -48.5v-1181q0 -31 -18.5 -49.5t-47.5 -18.5h-24q-20 0 -44 7t-40 24 q-31 29 -71 93t-84 149t-92 185.5t-95 203.5q-78 170 -126 278.5t-95 177.5v-1050q0 -31 -19.5 -49.5t-48.5 -18.5t-48 18.5t-19 49.5zM350 1561q0 23 10 41q16 25 53.5 48t102.5 23q39 0 66.5 -7t54.5 -14t54.5 -14.5t66.5 -7.5q33 0 55.5 19.5t46.5 19.5q25 0 44.5 -15.5 t19.5 -47.5q-1 -21 -11 -35q-16 -25 -53 -48.5t-102 -23.5q-39 0 -66.5 7t-54.5 14.5t-54.5 14.5t-66.5 7q-16 0 -29.5 -6t-25.5 -13t-23.5 -13.5t-23.5 -6.5q-25 0 -44.5 12.5t-19.5 45.5z" />
<glyph unicode="&#xd2;" horiz-adv-x="1341" d="M113 655q0 143 43 266t117.5 214.5t177 142.5t221.5 51q121 0 223 -50t176 -140t116 -214t42 -270q0 -145 -42 -267t-116 -211t-176 -139t-223 -50q-119 0 -221.5 51t-177 140t-117.5 212t-43 264zM252 655q0 -115 31.5 -212t88 -169.5t133.5 -113.5t167 -41q92 0 169 40 t132 111.5t86 170t31 214.5q0 117 -31 216.5t-86 172t-132 113.5t-169 41q-90 0 -167 -42t-133.5 -114.5t-88 -172t-31.5 -214.5zM375 1702q0 31 17.5 49t43.5 18q8 0 21 -4l331 -137q45 -20 46 -63q0 -27 -16.5 -46.5t-45.5 -19.5q-14 0 -31 8l-321 133q-16 8 -30.5 22.5 t-14.5 39.5z" />
<glyph unicode="&#xd3;" horiz-adv-x="1341" d="M113 655q0 143 43 266t117.5 214.5t177 142.5t221.5 51q121 0 223 -50t176 -140t116 -214t42 -270q0 -145 -42 -267t-116 -211t-176 -139t-223 -50q-119 0 -221.5 51t-177 140t-117.5 212t-43 264zM252 655q0 -115 31.5 -212t88 -169.5t133.5 -113.5t167 -41q92 0 169 40 t132 111.5t86 170t31 214.5q0 117 -31 216.5t-86 172t-132 113.5t-169 41q-90 0 -167 -42t-133.5 -114.5t-88 -172t-31.5 -214.5zM502 1561q0 47 43 63l325 137q10 4 14.5 5t12.5 1q29 0 48.5 -17t19.5 -46t-13.5 -41t-29.5 -21l-328 -137q-16 -6 -27 -6q-27 0 -46 16.5 t-19 45.5z" />
<glyph unicode="&#xd4;" horiz-adv-x="1341" d="M113 655q0 143 43 266t117.5 214.5t177 142.5t221.5 51q121 0 223 -50t176 -140t116 -214t42 -270q0 -145 -42 -267t-116 -211t-176 -139t-223 -50q-119 0 -221.5 51t-177 140t-117.5 212t-43 264zM252 655q0 -115 31.5 -212t88 -169.5t133.5 -113.5t167 -41q92 0 169 40 t132 111.5t86 170t31 214.5q0 117 -31 216.5t-86 172t-132 113.5t-169 41q-90 0 -167 -42t-133.5 -114.5t-88 -172t-31.5 -214.5zM360 1563q0 14 7.5 30.5t27.5 26.5l248 131q16 10 33 10q16 0 33 -10l249 -133q16 -8 23.5 -25.5t7.5 -29.5q0 -29 -19.5 -46.5t-47.5 -17.5 q-16 0 -33 10l-213 113l-215 -113q-20 -10 -35 -10q-29 0 -47.5 18.5t-18.5 45.5z" />
<glyph unicode="&#xd5;" horiz-adv-x="1341" d="M113 655q0 143 43 266t117.5 214.5t177 142.5t221.5 51q121 0 223 -50t176 -140t116 -214t42 -270q0 -145 -42 -267t-116 -211t-176 -139t-223 -50q-119 0 -221.5 51t-177 140t-117.5 212t-43 264zM252 655q0 -115 31.5 -212t88 -169.5t133.5 -113.5t167 -41q92 0 169 40 t132 111.5t86 170t31 214.5q0 117 -31 216.5t-86 172t-132 113.5t-169 41q-90 0 -167 -42t-133.5 -114.5t-88 -172t-31.5 -214.5zM387 1561q0 23 10 41q16 25 53 48t103 23q39 0 66.5 -7t54 -14t54.5 -14.5t67 -7.5q33 0 55 19.5t47 19.5t44.5 -15.5t19.5 -47.5 q-1 -21 -11 -35q-16 -25 -53 -48.5t-102 -23.5q-39 0 -67 7t-54.5 14.5t-54 14.5t-66.5 7q-16 0 -29.5 -6t-26 -13t-23.5 -13.5t-23 -6.5q-25 0 -44.5 12.5t-19.5 45.5z" />
<glyph unicode="&#xd6;" horiz-adv-x="1341" d="M113 655q0 143 43 266t117.5 214.5t177 142.5t221.5 51q121 0 223 -50t176 -140t116 -214t42 -270q0 -145 -42 -267t-116 -211t-176 -139t-223 -50q-119 0 -221.5 51t-177 140t-117.5 212t-43 264zM252 655q0 -115 31.5 -212t88 -169.5t133.5 -113.5t167 -41q92 0 169 40 t132 111.5t86 170t31 214.5q0 117 -31 216.5t-86 172t-132 113.5t-169 41q-90 0 -167 -42t-133.5 -114.5t-88 -172t-31.5 -214.5zM473 1567v69q0 29 19.5 47.5t48.5 18.5t48 -18.5t19 -47.5v-69q0 -29 -19.5 -48.5t-47.5 -19.5q-29 0 -48.5 19.5t-19.5 48.5zM733 1567v69 q0 29 19.5 47.5t48.5 18.5t48 -18.5t19 -47.5v-69q0 -29 -19.5 -48.5t-47.5 -19.5q-29 0 -48.5 19.5t-19.5 48.5z" />
<glyph unicode="&#xd7;" horiz-adv-x="1228" d="M207 150q0 29 20 47l289 290l-291 291q-18 18 -18 47q0 27 20.5 47.5t46.5 20.5q31 0 50 -21l288 -288l287 288q27 20 51 21q29 0 48.5 -20.5t19.5 -47.5q0 -14 -3 -24t-14 -23l-294 -291l286 -286q27 -23 27 -54q0 -23 -21.5 -44t-48.5 -21q-29 0 -49 20l-289 289 l-290 -289q-20 -20 -48 -20q-29 0 -48 19.5t-19 48.5z" />
<glyph unicode="&#xd8;" horiz-adv-x="1349" d="M113 657q0 143 43 266.5t118.5 213.5t178 141t221.5 51q78 0 150.5 -24.5t131.5 -65.5l31 51q18 29 55 29q29 0 49.5 -16.5t20.5 -47.5q0 -10 -2 -19t-8 -17l-45 -66q88 -88 134 -213t46 -283q0 -145 -43 -267t-118 -212t-178 -140t-224 -50q-78 0 -149.5 24.5 t-133.5 67.5l-29 -47q-20 -33 -59 -33q-27 0 -48.5 20.5t-21.5 47.5q0 18 13 36l41 66q-80 92 -127 216t-47 271zM252 657q0 -109 28.5 -202t81.5 -162l525 831q-41 33 -97.5 53.5t-115.5 20.5q-90 0 -168 -42t-134.5 -114.5t-88 -171t-31.5 -213.5zM461 193 q47 -35 99 -54.5t114 -19.5q92 0 170 41t134 112.5t88 170t32 214.5q0 113 -31 207t-84 164z" />
<glyph unicode="&#xd9;" horiz-adv-x="1253" d="M188 432v817q0 29 19.5 48.5t48.5 19.5t48.5 -19.5t19.5 -48.5v-813q0 -37 11 -91t44 -104.5t92 -86t156 -35.5q98 0 157.5 35.5t91 86t43 104.5t11.5 91v813q0 29 19.5 48.5t47.5 19.5q29 0 48.5 -19.5t19.5 -48.5v-817q0 -33 -6 -79t-23.5 -95t-48.5 -97t-79 -87 t-118.5 -62.5t-164.5 -23.5t-164 23.5t-118 62.5t-79 87t-47 97t-22.5 95t-6.5 79zM332 1702q0 31 17.5 49t43.5 18q8 0 21 -4l331 -137q45 -20 46 -63q0 -27 -16.5 -46.5t-45.5 -19.5q-14 0 -31 8l-321 133q-16 8 -30.5 22.5t-14.5 39.5z" />
<glyph unicode="&#xda;" horiz-adv-x="1253" d="M188 432v817q0 29 19.5 48.5t48.5 19.5t48.5 -19.5t19.5 -48.5v-813q0 -37 11 -91t44 -104.5t92 -86t156 -35.5q98 0 157.5 35.5t91 86t43 104.5t11.5 91v813q0 29 19.5 48.5t47.5 19.5q29 0 48.5 -19.5t19.5 -48.5v-817q0 -33 -6 -79t-23.5 -95t-48.5 -97t-79 -87 t-118.5 -62.5t-164.5 -23.5t-164 23.5t-118 62.5t-79 87t-47 97t-22.5 95t-6.5 79zM455 1561q0 47 43 63l325 137q10 4 14.5 5t12.5 1q29 0 48.5 -17t19.5 -46t-13.5 -41t-30.5 -21l-327 -137q-16 -6 -27 -6q-27 0 -46 16.5t-19 45.5z" />
<glyph unicode="&#xdb;" horiz-adv-x="1253" d="M188 432v817q0 29 19.5 48.5t48.5 19.5t48.5 -19.5t19.5 -48.5v-813q0 -37 11 -91t44 -104.5t92 -86t156 -35.5q98 0 157.5 35.5t91 86t43 104.5t11.5 91v813q0 29 19.5 48.5t47.5 19.5q29 0 48.5 -19.5t19.5 -48.5v-817q0 -33 -6 -79t-23.5 -95t-48.5 -97t-79 -87 t-118.5 -62.5t-164.5 -23.5t-164 23.5t-118 62.5t-79 87t-47 97t-22.5 95t-6.5 79zM317 1563q0 14 7.5 30.5t27.5 26.5l248 131q16 10 33 10q16 0 33 -10l249 -133q16 -8 23.5 -25.5t7.5 -29.5q0 -29 -19.5 -46.5t-47.5 -17.5q-16 0 -33 10l-213 113l-215 -113 q-20 -10 -35 -10q-29 0 -47.5 18.5t-18.5 45.5z" />
<glyph unicode="&#xdc;" horiz-adv-x="1253" d="M188 432v817q0 29 19.5 48.5t48.5 19.5t48.5 -19.5t19.5 -48.5v-813q0 -37 11 -91t44 -104.5t92 -86t156 -35.5q98 0 157.5 35.5t91 86t43 104.5t11.5 91v813q0 29 19.5 48.5t47.5 19.5q29 0 48.5 -19.5t19.5 -48.5v-817q0 -33 -6 -79t-23.5 -95t-48.5 -97t-79 -87 t-118.5 -62.5t-164.5 -23.5t-164 23.5t-118 62.5t-79 87t-47 97t-22.5 95t-6.5 79zM436 1567v69q0 29 19.5 47.5t48.5 18.5t48 -18.5t19 -47.5v-69q0 -29 -19.5 -48.5t-47.5 -19.5q-29 0 -48.5 19.5t-19.5 48.5zM696 1567v69q0 29 19.5 47.5t48.5 18.5t48 -18.5t19 -47.5 v-69q0 -29 -19 -48.5t-48 -19.5t-48.5 19.5t-19.5 48.5z" />
<glyph unicode="&#xdd;" horiz-adv-x="995" d="M51 1255q0 27 18.5 44.5t51.5 17.5q25 0 41 -14.5t20 -30.5q4 -10 22.5 -54t46.5 -105.5t61.5 -132.5t66.5 -137.5t63.5 -120.5t53.5 -81q23 27 53.5 82t65 122.5t68.5 140.5t62.5 135.5t48 106.5t23.5 54q14 35 60 35q33 0 49 -17.5t16 -44.5q0 -14 -4 -24l-18 -45 q-18 -45 -49 -113.5t-70 -151.5t-81 -162t-83 -142.5t-74 -94.5v-454q0 -29 -19.5 -48.5t-47.5 -19.5q-29 0 -48.5 19.5t-19.5 48.5v454q-33 31 -72 89.5t-77.5 131t-75.5 150.5t-68 146.5t-51 119.5l-29 72q-4 16 -4 24zM268 1561q0 47 43 63l326 137q10 4 14 5t13 1 q29 0 48 -17t19 -46t-13 -41t-30 -21l-328 -137q-16 -6 -26 -6q-27 0 -46.5 16.5t-19.5 45.5z" />
<glyph unicode="&#xde;" horiz-adv-x="1009" d="M154 68v1138q0 29 19.5 48.5t47.5 19.5q29 0 48.5 -19.5t19.5 -48.5v-155h207q92 0 168.5 -30t134 -82t89.5 -126t32 -160t-32 -156.5t-88.5 -122.5t-134 -81t-169.5 -29h-207v-196q0 -29 -19.5 -48.5t-48.5 -19.5t-48 19.5t-19 48.5zM289 393h207q127 0 205.5 73 t78.5 187q0 57 -21.5 106.5t-59 84.5t-90 55.5t-113.5 20.5h-207v-527z" />
<glyph unicode="&#xdf;" horiz-adv-x="1021" d="M154 68v931q0 106 30.5 179t77.5 118t106.5 65.5t114.5 20.5q63 0 127 -19.5t113 -59t80 -102t31 -148.5q0 -76 -33 -135.5t-73 -103.5t-72.5 -73.5t-32.5 -48.5q0 -18 49 -47t108.5 -77t108.5 -118.5t49 -170.5q0 -147 -100.5 -229.5t-270.5 -82.5q-51 0 -95 16.5 t-56 26.5q-14 10 -26.5 25.5t-12.5 32.5q0 63 61 63q8 0 18.5 -4t14.5 -8q16 -10 32.5 -15.5t63.5 -5.5q109 0 170.5 48.5t61.5 132.5q0 55 -22.5 96t-57.5 72.5t-75 57t-74.5 53.5t-57.5 59.5t-23 74.5t19.5 76t46.5 63l37 37q35 35 68.5 80t33.5 105q0 55 -19.5 93 t-49 61.5t-67.5 33.5t-75 10q-35 0 -68.5 -13t-62 -43t-46 -78t-17.5 -118v-931q0 -29 -19.5 -48.5t-48.5 -19.5t-48 19.5t-19 48.5z" />
<glyph unicode="&#xe0;" horiz-adv-x="935" d="M92 279q0 143 100.5 214.5t296.5 71.5h162v103q0 25 -10 52.5t-32.5 51t-59.5 39.5t-88 16q-82 0 -133.5 -17t-85.5 -36q-8 -4 -15.5 -7t-21.5 -3q-31 0 -48.5 20.5t-17.5 44.5q0 12 6.5 27.5t22.5 26.5q18 12 49 25.5t70 24.5t83 18t91 7q88 0 149.5 -27.5t100.5 -70.5 t57 -94t18 -98v-453q0 -43 5.5 -58.5t15.5 -19.5q25 -10 41 -28.5t16 -42.5q0 -31 -18.5 -48.5t-46.5 -17.5q-4 0 -18.5 2t-32 9t-35 21.5t-29.5 39.5q-35 -29 -100.5 -56.5t-155.5 -27.5q-61 0 -120.5 17.5t-107.5 52t-78 90t-30 131.5zM231 279q0 -41 17.5 -71t45.5 -50.5 t62.5 -29.5t71.5 -9q39 0 77 7t67.5 17.5t50 22.5t28.5 22v248h-162q-258 0 -258 -157zM254 1321q0 31 17.5 49.5t43.5 18.5q8 0 21 -5l332 -137q45 -20 45 -63q0 -27 -16.5 -46.5t-45.5 -19.5q-14 0 -30 8l-322 134q-16 8 -30.5 22t-14.5 39z" />
<glyph unicode="&#xe1;" horiz-adv-x="935" d="M92 279q0 143 100.5 214.5t296.5 71.5h162v103q0 25 -10 52.5t-32.5 51t-59.5 39.5t-88 16q-82 0 -133.5 -17t-85.5 -36q-8 -4 -15.5 -7t-21.5 -3q-31 0 -48.5 20.5t-17.5 44.5q0 12 6.5 27.5t22.5 26.5q18 12 49 25.5t70 24.5t83 18t91 7q88 0 149.5 -27.5t100.5 -70.5 t57 -94t18 -98v-453q0 -43 5.5 -58.5t15.5 -19.5q25 -10 41 -28.5t16 -42.5q0 -31 -18.5 -48.5t-46.5 -17.5q-4 0 -18.5 2t-32 9t-35 21.5t-29.5 39.5q-35 -29 -100.5 -56.5t-155.5 -27.5q-61 0 -120.5 17.5t-107.5 52t-78 90t-30 131.5zM231 279q0 -41 17.5 -71t45.5 -50.5 t62.5 -29.5t71.5 -9q39 0 77 7t67.5 17.5t50 22.5t28.5 22v248h-162q-258 0 -258 -157zM254 1180q0 47 43 63l326 137q10 4 14 5t12 1q29 0 48.5 -17t19.5 -46t-13.5 -41t-29.5 -20l-328 -138q-16 -6 -27 -6q-27 0 -46 16.5t-19 45.5z" />
<glyph unicode="&#xe2;" horiz-adv-x="935" d="M92 279q0 143 100.5 214.5t296.5 71.5h162v103q0 25 -10 52.5t-32.5 51t-59.5 39.5t-88 16q-82 0 -133.5 -17t-85.5 -36q-8 -4 -15.5 -7t-21.5 -3q-31 0 -48.5 20.5t-17.5 44.5q0 12 6.5 27.5t22.5 26.5q18 12 49 25.5t70 24.5t83 18t91 7q88 0 149.5 -27.5t100.5 -70.5 t57 -94t18 -98v-453q0 -43 5.5 -58.5t15.5 -19.5q25 -10 41 -28.5t16 -42.5q0 -31 -18.5 -48.5t-46.5 -17.5q-4 0 -18.5 2t-32 9t-35 21.5t-29.5 39.5q-35 -29 -100.5 -56.5t-155.5 -27.5q-61 0 -120.5 17.5t-107.5 52t-78 90t-30 131.5zM143 1182q0 14 7.5 30.5t27.5 26.5 l248 131q16 10 33 10q16 0 33 -10l249 -133q16 -8 23.5 -25.5t7.5 -29.5q0 -29 -19.5 -46.5t-47.5 -17.5q-16 0 -33 10l-213 113l-215 -113q-20 -10 -35 -10q-29 0 -47.5 18.5t-18.5 45.5zM231 279q0 -41 17.5 -71t45.5 -50.5t62.5 -29.5t71.5 -9q39 0 77 7t67.5 17.5 t50 22.5t28.5 22v248h-162q-258 0 -258 -157z" />
<glyph unicode="&#xe3;" horiz-adv-x="935" d="M92 279q0 143 100.5 214.5t296.5 71.5h162v103q0 25 -10 52.5t-32.5 51t-59.5 39.5t-88 16q-82 0 -133.5 -17t-85.5 -36q-8 -4 -15.5 -7t-21.5 -3q-31 0 -48.5 20.5t-17.5 44.5q0 12 6.5 27.5t22.5 26.5q18 12 49 25.5t70 24.5t83 18t91 7q88 0 149.5 -27.5t100.5 -70.5 t57 -94t18 -98v-453q0 -43 5.5 -58.5t15.5 -19.5q25 -10 41 -28.5t16 -42.5q0 -31 -18.5 -48.5t-46.5 -17.5q-4 0 -18.5 2t-32 9t-35 21.5t-29.5 39.5q-35 -29 -100.5 -56.5t-155.5 -27.5q-61 0 -120.5 17.5t-107.5 52t-78 90t-30 131.5zM170 1180q0 23 10 41q16 25 53 48 t103 23q39 0 66.5 -7t54 -14t54.5 -14.5t67 -7.5q33 0 55 19.5t47 19.5t44 -15.5t19 -47.5q0 -21 -10 -35q-16 -25 -53 -48.5t-102 -23.5q-39 0 -67 7.5t-54.5 14.5t-54 14t-66.5 7q-16 0 -29.5 -6t-26 -13t-23.5 -13.5t-24 -6.5q-25 0 -44 12.5t-19 45.5zM231 279 q0 -41 17.5 -71t45.5 -50.5t62.5 -29.5t71.5 -9q39 0 77 7t67.5 17.5t50 22.5t28.5 22v248h-162q-258 0 -258 -157z" />
<glyph unicode="&#xe4;" horiz-adv-x="935" d="M92 279q0 143 100.5 214.5t296.5 71.5h162v103q0 25 -10 52.5t-32.5 51t-59.5 39.5t-88 16q-82 0 -133.5 -17t-85.5 -36q-8 -4 -15.5 -7t-21.5 -3q-31 0 -48.5 20.5t-17.5 44.5q0 12 6.5 27.5t22.5 26.5q18 12 49 25.5t70 24.5t83 18t91 7q88 0 149.5 -27.5t100.5 -70.5 t57 -94t18 -98v-453q0 -43 5.5 -58.5t15.5 -19.5q25 -10 41 -28.5t16 -42.5q0 -31 -18.5 -48.5t-46.5 -17.5q-4 0 -18.5 2t-32 9t-35 21.5t-29.5 39.5q-35 -29 -100.5 -56.5t-155.5 -27.5q-61 0 -120.5 17.5t-107.5 52t-78 90t-30 131.5zM231 279q0 -41 17.5 -71t45.5 -50.5 t62.5 -29.5t71.5 -9q39 0 77 7t67.5 17.5t50 22.5t28.5 22v248h-162q-258 0 -258 -157zM281 1145v69q0 29 19 47.5t48 18.5t48.5 -18.5t19.5 -47.5v-69q0 -29 -19.5 -48.5t-48.5 -19.5t-48 19.5t-19 48.5zM541 1145v69q0 29 19.5 47.5t47.5 18.5q29 0 48.5 -18.5t19.5 -47.5 v-69q0 -29 -19.5 -48.5t-48.5 -19.5t-48 19.5t-19 48.5z" />
<glyph unicode="&#xe5;" horiz-adv-x="935" d="M92 279q0 143 100.5 214.5t296.5 71.5h162v103q0 25 -10 52.5t-32.5 51t-59.5 39.5t-88 16q-82 0 -133.5 -17t-85.5 -36q-8 -4 -15.5 -7t-21.5 -3q-31 0 -48.5 20.5t-17.5 44.5q0 12 6.5 27.5t22.5 26.5q18 12 49 25.5t70 24.5t83 18t91 7q88 0 149.5 -27.5t100.5 -70.5 t57 -94t18 -98v-453q0 -43 5.5 -58.5t15.5 -19.5q25 -10 41 -28.5t16 -42.5q0 -31 -18.5 -48.5t-46.5 -17.5q-4 0 -18.5 2t-32 9t-35 21.5t-29.5 39.5q-35 -29 -100.5 -56.5t-155.5 -27.5q-61 0 -120.5 17.5t-107.5 52t-78 90t-30 131.5zM231 279q0 -41 17.5 -71t45.5 -50.5 t62.5 -29.5t71.5 -9q39 0 77 7t67.5 17.5t50 22.5t28.5 22v248h-162q-258 0 -258 -157zM307 1292q0 74 50.5 123t123.5 49q74 0 124 -49t50 -123t-50 -123t-124 -49t-124 49.5t-50 122.5zM401 1294q0 -33 24 -56.5t56 -23.5q33 0 56.5 23.5t23.5 56.5t-23.5 54.5t-56.5 21.5 t-56.5 -21.5t-23.5 -54.5z" />
<glyph unicode="&#xe6;" horiz-adv-x="1460" d="M90 279q0 143 101.5 214.5t297.5 71.5h160v101q0 31 -12 59.5t-37 51t-59.5 36.5t-79.5 14q-82 0 -134.5 -17t-86.5 -38q-16 -8 -35 -8q-29 0 -47.5 19.5t-18.5 45.5q0 12 6.5 27.5t22.5 26.5q18 12 49 25.5t70 24.5t83 18t91 7q74 0 124 -19t82.5 -46t48 -51.5 t17.5 -36.5q6 14 26.5 38.5t55.5 49.5t84 43t113 20h43q20 0 41 -4q66 -10 117 -38.5t85.5 -66.5t53 -81t18.5 -82q0 -84 -38 -132t-111.5 -73.5t-183 -34t-253.5 -8.5v-211q70 -106 232 -106q39 0 75.5 8t65.5 19.5t49.5 21.5t28.5 16q8 4 18.5 8.5t24.5 4.5 q29 0 48.5 -17.5t19.5 -46.5q0 -18 -9.5 -33.5t-21.5 -23.5q-63 -41 -141 -64.5t-160 -23.5t-168 26.5t-139 100.5q-47 -53 -117 -90t-160 -37q-61 0 -121.5 17.5t-109.5 52t-79 90t-30 131.5zM229 279q0 -41 17.5 -71t46.5 -50.5t64.5 -29.5t72.5 -9q57 0 115.5 29.5 t103.5 76.5v211h-160q-260 0 -260 -157zM784 565q119 0 204 4t138.5 17.5t79 37t25.5 60.5q0 23 -12.5 47.5t-37 46t-61.5 35.5t-86 14q-84 0 -149.5 -47t-100.5 -129v-86z" />
<glyph unicode="&#xe7;" horiz-adv-x="960" d="M92 477q0 102 37 190.5t100.5 153t149.5 101t184 36.5q68 0 135.5 -20t124.5 -57q29 -16 29 -58q0 -29 -18.5 -47t-47.5 -18q-23 0 -36 10q-41 29 -90.5 44t-96.5 15q-72 0 -132 -26.5t-105 -73.5t-70 -111.5t-25 -138.5q0 -66 17.5 -130t52.5 -115.5t90 -82t133 -30.5 q59 0 124 19.5t120 49.5q14 8 35 9q25 0 45 -18.5t20 -49.5q0 -16 -10 -31.5t-24 -25.5q-68 -37 -149 -60.5t-161 -23.5l-22 -86q12 4 35.5 9t46.5 5q66 0 112.5 -46t46.5 -126q0 -47 -17 -82t-45 -58.5t-63.5 -34.5t-70.5 -11q-55 0 -85 18t-30 45q0 45 47 45q10 0 25.5 -6 t48.5 -6q29 0 60.5 23.5t31.5 66.5q0 41 -20.5 60.5t-49.5 19.5t-45 -4t-26 -8l-19 -11q-8 -4 -20 -4q-18 0 -30.5 10.5t-12.5 26.5t4 33l27 127q-82 12 -148.5 51t-114 102.5t-73 146.5t-25.5 183z" />
<glyph unicode="&#xe8;" horiz-adv-x="958" d="M92 471q0 111 30 201t85 153.5t134 98t175 34.5q82 0 146.5 -25.5t108.5 -65.5t66.5 -89t22.5 -94q0 -86 -43 -142.5t-124 -88t-196.5 -45t-258.5 -15.5q6 -55 26.5 -105t55 -88t80.5 -59.5t106 -21.5q43 0 86 10t80 22.5t62.5 23.5t33.5 15q10 4 19.5 6.5t15.5 2.5 q27 0 45 -19.5t18 -46.5q0 -23 -10 -36t-22 -21l-33 -17q-29 -14 -74 -29.5t-102.5 -28.5t-118.5 -13q-92 0 -168 34.5t-131 99t-85 152.5t-30 197zM231 516q264 4 377 44t113 124q0 23 -12.5 47.5t-38 46t-64.5 35.5t-90 14q-123 0 -198.5 -79.5t-86.5 -231.5zM311 1321 q0 31 17.5 49.5t44.5 18.5q8 0 20 -5l332 -137q45 -20 45 -63q0 -27 -16 -46.5t-45 -19.5q-14 0 -31 8l-322 134q-16 8 -30.5 22t-14.5 39z" />
<glyph unicode="&#xe9;" horiz-adv-x="958" d="M92 471q0 111 30 201t85 153.5t134 98t175 34.5q82 0 146.5 -25.5t108.5 -65.5t66.5 -89t22.5 -94q0 -86 -43 -142.5t-124 -88t-196.5 -45t-258.5 -15.5q6 -55 26.5 -105t55 -88t80.5 -59.5t106 -21.5q43 0 86 10t80 22.5t62.5 23.5t33.5 15q10 4 19.5 6.5t15.5 2.5 q27 0 45 -19.5t18 -46.5q0 -23 -10 -36t-22 -21l-33 -17q-29 -14 -74 -29.5t-102.5 -28.5t-118.5 -13q-92 0 -168 34.5t-131 99t-85 152.5t-30 197zM231 516q264 4 377 44t113 124q0 23 -12.5 47.5t-38 46t-64.5 35.5t-90 14q-123 0 -198.5 -79.5t-86.5 -231.5zM324 1180 q0 47 43 63l325 137q10 4 14.5 5t12.5 1q29 0 48 -17t19 -46t-13 -41t-30 -20l-327 -138q-16 -6 -27 -6q-27 0 -46 16.5t-19 45.5z" />
<glyph unicode="&#xea;" horiz-adv-x="958" d="M92 471q0 111 30 201t85 153.5t134 98t175 34.5q82 0 146.5 -25.5t108.5 -65.5t66.5 -89t22.5 -94q0 -86 -43 -142.5t-124 -88t-196.5 -45t-258.5 -15.5q6 -55 26.5 -105t55 -88t80.5 -59.5t106 -21.5q43 0 86 10t80 22.5t62.5 23.5t33.5 15q10 4 19.5 6.5t15.5 2.5 q27 0 45 -19.5t18 -46.5q0 -23 -10 -36t-22 -21l-33 -17q-29 -14 -74 -29.5t-102.5 -28.5t-118.5 -13q-92 0 -168 34.5t-131 99t-85 152.5t-30 197zM215 1182q0 14 7 30.5t28 26.5l248 131q16 10 32 10t33 -10l250 -133q16 -8 23.5 -25.5t7.5 -29.5q0 -29 -19.5 -46.5 t-48.5 -17.5q-16 0 -33 10l-213 113l-215 -113q-20 -10 -34 -10q-29 0 -47.5 18.5t-18.5 45.5zM231 516q264 4 377 44t113 124q0 23 -12.5 47.5t-38 46t-64.5 35.5t-90 14q-123 0 -198.5 -79.5t-86.5 -231.5z" />
<glyph unicode="&#xeb;" horiz-adv-x="958" d="M92 471q0 111 30 201t85 153.5t134 98t175 34.5q82 0 146.5 -25.5t108.5 -65.5t66.5 -89t22.5 -94q0 -86 -43 -142.5t-124 -88t-196.5 -45t-258.5 -15.5q6 -55 26.5 -105t55 -88t80.5 -59.5t106 -21.5q43 0 86 10t80 22.5t62.5 23.5t33.5 15q10 4 19.5 6.5t15.5 2.5 q27 0 45 -19.5t18 -46.5q0 -23 -10 -36t-22 -21l-33 -17q-29 -14 -74 -29.5t-102.5 -28.5t-118.5 -13q-92 0 -168 34.5t-131 99t-85 152.5t-30 197zM231 516q264 4 377 44t113 124q0 23 -12.5 47.5t-38 46t-64.5 35.5t-90 14q-123 0 -198.5 -79.5t-86.5 -231.5zM336 1145v69 q0 29 19.5 47.5t47.5 18.5q29 0 48.5 -18.5t19.5 -47.5v-69q0 -29 -19.5 -48.5t-48.5 -19.5t-48 19.5t-19 48.5zM596 1145v69q0 29 19.5 47.5t48.5 18.5t48 -18.5t19 -47.5v-69q0 -29 -19.5 -48.5t-47.5 -19.5q-29 0 -48.5 19.5t-19.5 48.5z" />
<glyph unicode="&#xec;" horiz-adv-x="440" d="M70 1294q0 31 17 49.5t44 18.5q8 0 21 -4l331 -137q45 -20 45 -64q0 -27 -16 -46t-45 -19q-14 0 -31 8l-321 133q-16 8 -30.5 22.5t-14.5 38.5zM154 68v811q0 29 19.5 48t47.5 19q29 0 48.5 -19.5t19.5 -47.5v-811q0 -29 -19.5 -48.5t-48.5 -19.5t-48 19.5t-19 48.5z" />
<glyph unicode="&#xed;" horiz-adv-x="440" d="M-16 1180q0 47 43 63l325 137q10 4 14.5 5t12.5 1q29 0 48 -17t19 -46t-13 -41t-30 -20l-327 -138q-16 -6 -27 -6q-27 0 -46 16.5t-19 45.5zM154 68v811q0 29 19.5 48t47.5 19q29 0 48.5 -19.5t19.5 -47.5v-811q0 -29 -19.5 -48.5t-48.5 -19.5t-48 19.5t-19 48.5z" />
<glyph unicode="&#xee;" horiz-adv-x="440" d="M-98 1182q0 14 7 30.5t28 26.5l247 131q16 10 33 10q16 0 33 -10l250 -133q16 -8 23 -25.5t7 -29.5q0 -29 -19 -46.5t-48 -17.5q-16 0 -33 10l-213 113l-215 -113q-20 -10 -35 -10q-29 0 -47 18.5t-18 45.5zM154 68v811q0 29 19.5 48t47.5 19q29 0 48.5 -19.5t19.5 -47.5 v-811q0 -29 -19.5 -48.5t-48.5 -19.5t-48 19.5t-19 48.5z" />
<glyph unicode="&#xef;" horiz-adv-x="440" d="M25 1145v69q0 29 19 47.5t48 18.5t48.5 -18.5t19.5 -47.5v-69q0 -29 -19.5 -48.5t-48.5 -19.5t-48 19.5t-19 48.5zM154 68v811q0 29 19.5 48t47.5 19q29 0 48.5 -19.5t19.5 -47.5v-811q0 -29 -19.5 -48.5t-48.5 -19.5t-48 19.5t-19 48.5zM285 1145v69q0 29 19.5 47.5 t47.5 18.5q29 0 48.5 -18.5t19.5 -47.5v-69q0 -29 -19.5 -48.5t-48.5 -19.5t-48 19.5t-19 48.5z" />
<glyph unicode="&#xf0;" horiz-adv-x="991" d="M92 512q0 76 22.5 156t70.5 144.5t126 105t189 40.5q49 0 91 -13t75.5 -31.5t56 -37t33.5 -28.5q-8 113 -51 195.5t-95 130.5l-182 -89q-10 -8 -33 -8q-29 0 -46 17.5t-17 44.5q0 16 9 33.5t30 25.5l123 55q-55 31 -132 37t-151 6q-39 0 -57.5 19.5t-18.5 48.5 q0 27 18.5 45t57.5 18q94 0 204.5 -15t211.5 -83l121 60q10 4 16 5t14 1q29 0 47.5 -19.5t18.5 -48.5q0 -39 -35 -59l-76 -39q70 -84 117 -212t51 -300v-15q0 -348 -105.5 -531t-303.5 -183q-129 0 -207 55t-121 135t-57.5 171t-14.5 163zM231 512q0 -68 10.5 -137.5 t39 -125.5t79 -93t132.5 -37q135 0 204.5 145.5t71.5 425.5q-25 25 -55.5 48.5t-64.5 44t-71.5 32.5t-76.5 12q-76 0 -127 -28.5t-83 -73.5t-45.5 -101.5t-13.5 -111.5z" />
<glyph unicode="&#xf1;" d="M154 68v813q0 29 17 47t46 18t46.5 -17.5t17.5 -41.5q8 6 30.5 17t54 23.5t73.5 21.5t91 9q178 0 256 -81.5t78 -266.5v-542q0 -29 -19.5 -48.5t-47.5 -19.5q-29 0 -48.5 19.5t-19.5 48.5v522q0 70 -11 116t-38 73.5t-71 37.5t-107 10q-78 0 -137.5 -22.5t-75.5 -32.5 v-704q0 -29 -19.5 -48.5t-48.5 -19.5t-48 19.5t-19 48.5zM213 1180q0 23 10 41q16 25 53 48t103 23q39 0 66.5 -7t54 -14t54.5 -14.5t67 -7.5q33 0 55 19.5t47 19.5t44 -15.5t19 -47.5q0 -21 -10 -35q-16 -25 -53 -48.5t-102 -23.5q-39 0 -67 7.5t-54.5 14.5t-54 14t-66.5 7 q-16 0 -29.5 -6t-26 -13t-23.5 -13.5t-24 -6.5q-25 0 -44 12.5t-19 45.5z" />
<glyph unicode="&#xf2;" horiz-adv-x="1009" d="M92 471q0 111 30 200t85 153.5t131 99t168 34.5t168 -34.5t130 -99t84 -153.5t30 -200t-29 -201t-82 -152.5t-130 -96t-171 -33.5q-92 0 -168 34.5t-131 99t-85 152.5t-30 197zM231 471q0 -160 73 -256t202 -96t200.5 94t71.5 258q0 166 -72.5 261t-199.5 95t-201 -96 t-74 -260zM287 1321q0 31 17.5 49.5t43.5 18.5q8 0 21 -5l331 -137q45 -20 45 -63q0 -27 -16 -46.5t-45 -19.5q-14 0 -31 8l-321 134q-16 8 -30.5 22t-14.5 39z" />
<glyph unicode="&#xf3;" horiz-adv-x="1009" d="M92 471q0 111 30 200t85 153.5t131 99t168 34.5t168 -34.5t130 -99t84 -153.5t30 -200t-29 -201t-82 -152.5t-130 -96t-171 -33.5q-92 0 -168 34.5t-131 99t-85 152.5t-30 197zM231 471q0 -160 73 -256t202 -96t200.5 94t71.5 258q0 166 -72.5 261t-199.5 95t-201 -96 t-74 -260zM287 1180q0 47 43 63l325 137q10 4 14.5 5t12.5 1q29 0 48.5 -17t19.5 -46t-13.5 -41t-29.5 -20l-328 -138q-16 -6 -27 -6q-27 0 -46 16.5t-19 45.5z" />
<glyph unicode="&#xf4;" horiz-adv-x="1009" d="M92 471q0 111 30 200t85 153.5t131 99t168 34.5t168 -34.5t130 -99t84 -153.5t30 -200t-29 -201t-82 -152.5t-130 -96t-171 -33.5q-92 0 -168 34.5t-131 99t-85 152.5t-30 197zM205 1182q0 14 7 30.5t28 26.5l247 131q16 10 33 10q16 0 33 -10l250 -133q16 -8 23.5 -25.5 t7.5 -29.5q0 -29 -19.5 -46.5t-48.5 -17.5q-16 0 -33 10l-213 113l-215 -113q-20 -10 -35 -10q-29 0 -47 18.5t-18 45.5zM231 471q0 -160 73 -256t202 -96t200.5 94t71.5 258q0 166 -72.5 261t-199.5 95t-201 -96t-74 -260z" />
<glyph unicode="&#xf5;" horiz-adv-x="1009" d="M92 471q0 111 30 200t85 153.5t131 99t168 34.5t168 -34.5t130 -99t84 -153.5t30 -200t-29 -201t-82 -152.5t-130 -96t-171 -33.5q-92 0 -168 34.5t-131 99t-85 152.5t-30 197zM229 1180q0 23 11 41q16 25 53 48t102 23q39 0 66.5 -7t54.5 -14t54.5 -14.5t66.5 -7.5 q33 0 55.5 19.5t46.5 19.5q25 0 44.5 -15.5t19.5 -47.5q0 -21 -10 -35q-16 -25 -53.5 -48.5t-102.5 -23.5q-39 0 -66.5 7.5t-54.5 14.5t-54.5 14t-66.5 7q-16 0 -29.5 -6t-25.5 -13t-23.5 -13.5t-23.5 -6.5q-25 0 -44.5 12.5t-19.5 45.5zM231 471q0 -160 73 -256t202 -96 t200.5 94t71.5 258q0 166 -72.5 261t-199.5 95t-201 -96t-74 -260z" />
<glyph unicode="&#xf6;" horiz-adv-x="1009" d="M92 471q0 111 30 200t85 153.5t131 99t168 34.5t168 -34.5t130 -99t84 -153.5t30 -200t-29 -201t-82 -152.5t-130 -96t-171 -33.5q-92 0 -168 34.5t-131 99t-85 152.5t-30 197zM231 471q0 -160 73 -256t202 -96t200.5 94t71.5 258q0 166 -72.5 261t-199.5 95t-201 -96 t-74 -260zM313 1145v69q0 29 19.5 47.5t48.5 18.5t48.5 -18.5t19.5 -47.5v-69q0 -29 -19.5 -48.5t-48.5 -19.5t-48.5 19.5t-19.5 48.5zM573 1145v69q0 29 19.5 47.5t48.5 18.5t48.5 -18.5t19.5 -47.5v-69q0 -29 -19.5 -48.5t-48.5 -19.5t-48.5 19.5t-19.5 48.5z" />
<glyph unicode="&#xf7;" horiz-adv-x="1228" d="M160 483q0 29 19.5 47.5t47.5 18.5h774q29 0 48.5 -18.5t19.5 -47.5t-19.5 -47t-48.5 -18h-774q-29 0 -48 18.5t-19 46.5zM543 72v67q0 29 19.5 48.5t47.5 19.5q29 0 48.5 -19.5t19.5 -48.5v-67q0 -29 -19.5 -48.5t-48.5 -19.5t-48 19.5t-19 48.5zM543 834v67 q0 29 19.5 48.5t47.5 19.5q29 0 48.5 -19.5t19.5 -48.5v-67q0 -29 -20.5 -48.5t-49.5 -19.5t-47 19.5t-18 48.5z" />
<glyph unicode="&#xf8;" horiz-adv-x="1007" d="M92 471q0 111 30 200t84 153.5t130 99t168 34.5q117 0 203 -53l10 15q8 10 19.5 18t33.5 8q25 0 45.5 -16.5t20.5 -46.5q0 -20 -15 -43l-16 -25q53 -63 83 -148t30 -196t-29 -201t-83 -152.5t-131 -96t-171 -33.5q-53 0 -101.5 14t-89.5 37q-20 -39 -61 -39 q-25 0 -44.5 20.5t-19.5 47.5q0 12 7 22l16 27q-57 63 -88 153t-31 201zM231 471q0 -72 14.5 -129t45.5 -98l342 547q-53 37 -129 36q-127 0 -200 -96t-73 -260zM387 152q51 -33 117 -33q68 0 120 28.5t85.5 76.5t51 111.5t17.5 135.5q0 53 -12 109.5t-41 107.5z" />
<glyph unicode="&#xf9;" d="M154 334v545q0 29 19.5 48t47.5 19q29 0 48.5 -19.5t19.5 -47.5v-525q0 -70 10 -115.5t36.5 -72.5t71 -37t109.5 -10q76 0 133.5 28.5t79.5 51.5v680q0 29 19.5 48t48.5 19t48 -19.5t19 -47.5v-811q0 -29 -17 -48.5t-46 -19.5t-46.5 18.5t-17.5 47.5v8 q-12 -10 -33.5 -24.5t-54.5 -29t-72.5 -23.5t-89.5 -9q-180 0 -256.5 81t-76.5 265zM281 1321q0 31 17 49.5t44 18.5q8 0 20 -5l332 -137q45 -20 45 -63q0 -27 -16 -46.5t-45 -19.5q-14 0 -31 8l-321 134q-16 8 -30.5 22t-14.5 39z" />
<glyph unicode="&#xfa;" d="M154 334v545q0 29 19.5 48t47.5 19q29 0 48.5 -19.5t19.5 -47.5v-525q0 -70 10 -115.5t36.5 -72.5t71 -37t109.5 -10q76 0 133.5 28.5t79.5 51.5v680q0 29 19.5 48t48.5 19t48 -19.5t19 -47.5v-811q0 -29 -17 -48.5t-46 -19.5t-46.5 18.5t-17.5 47.5v8 q-12 -10 -33.5 -24.5t-54.5 -29t-72.5 -23.5t-89.5 -9q-180 0 -256.5 81t-76.5 265zM281 1180q0 47 43 63l325 137q10 4 14.5 5t12.5 1q29 0 48 -17t19 -46t-13 -41t-30 -20l-327 -138q-16 -6 -27 -6q-27 0 -46 16.5t-19 45.5z" />
<glyph unicode="&#xfb;" d="M154 334v545q0 29 19.5 48t47.5 19q29 0 48.5 -19.5t19.5 -47.5v-525q0 -70 10 -115.5t36.5 -72.5t71 -37t109.5 -10q76 0 133.5 28.5t79.5 51.5v680q0 29 19.5 48t48.5 19t48 -19.5t19 -47.5v-811q0 -29 -17 -48.5t-46 -19.5t-46.5 18.5t-17.5 47.5v8 q-12 -10 -33.5 -24.5t-54.5 -29t-72.5 -23.5t-89.5 -9q-180 0 -256.5 81t-76.5 265zM195 1182q0 14 7 30.5t27 26.5l248 131q16 10 33 10q16 0 33 -10l250 -133q16 -8 23 -25.5t7 -29.5q0 -29 -19.5 -46.5t-47.5 -17.5q-16 0 -33 10l-213 113l-215 -113q-20 -10 -35 -10 q-29 0 -47 18.5t-18 45.5z" />
<glyph unicode="&#xfc;" d="M154 334v545q0 29 19.5 48t47.5 19q29 0 48.5 -19.5t19.5 -47.5v-525q0 -70 10 -115.5t36.5 -72.5t71 -37t109.5 -10q76 0 133.5 28.5t79.5 51.5v680q0 29 19.5 48t48.5 19t48 -19.5t19 -47.5v-811q0 -29 -17 -48.5t-46 -19.5t-46.5 18.5t-17.5 47.5v8 q-12 -10 -33.5 -24.5t-54.5 -29t-72.5 -23.5t-89.5 -9q-180 0 -256.5 81t-76.5 265zM322 1145v69q0 29 19 47.5t48 18.5t48.5 -18.5t19.5 -47.5v-69q0 -29 -19.5 -48.5t-48.5 -19.5t-48 19.5t-19 48.5zM582 1145v69q0 29 19.5 47.5t47.5 18.5q29 0 48.5 -18.5t19.5 -47.5 v-69q0 -29 -19.5 -48.5t-48.5 -19.5t-48 19.5t-19 48.5z" />
<glyph unicode="&#xfd;" horiz-adv-x="862" d="M-223 -264q0 29 21.5 47t45.5 18q20 0 39 -14q33 -27 74 -50.5t121 -23.5q45 0 85 12.5t76.5 48.5t72.5 100.5t77 168.5q-10 6 -19.5 22.5t-19.5 32.5q-29 55 -62.5 131t-67.5 158t-64.5 163t-55 147.5t-41 110.5t-18.5 52q-2 4 -3 9t-1 16q0 31 20.5 46t48.5 15 q29 0 42.5 -15.5t21.5 -35.5q10 -29 38 -105.5t63.5 -171t74.5 -189.5t74 -163q8 -16 15.5 -29.5t15.5 -23.5q18 51 47.5 133t65.5 176t72 193.5t66 185.5q8 18 22.5 31.5t41.5 13.5q29 0 48.5 -18.5t19.5 -46.5q0 -10 -9 -31l-274 -756q-55 -152 -108.5 -251t-111 -157.5 t-119.5 -81t-134 -22.5q-57 0 -99 9.5t-75 22.5t-57.5 31.5t-45.5 37.5q-10 8 -17 21t-7 32zM207 1151q0 47 43 63l325 138q10 4 14.5 5t12.5 1q29 0 48.5 -17.5t19.5 -46.5t-13.5 -41t-29.5 -20l-328 -137q-16 -6 -27 -6q-27 0 -46 16t-19 45z" />
<glyph unicode="&#xfe;" horiz-adv-x="1015" d="M154 -313v1624q0 29 19.5 47t47.5 18q29 0 48.5 -18.5t19.5 -46.5v-393q94 41 209 40q96 0 176 -33.5t137 -97t89 -151.5t32 -195q0 -104 -37 -194t-101.5 -157t-151.5 -104.5t-185 -37.5q-49 0 -91 13t-77 30v-344q0 -29 -19.5 -48.5t-48.5 -19.5t-48 19.5t-19 48.5z M289 176q31 -18 76 -37.5t92 -19.5q70 0 131 28.5t107 77.5t72 115t26 141q0 160 -80 253t-215 93q-55 0 -108.5 -12t-100.5 -37v-602z" />
<glyph unicode="&#xff;" horiz-adv-x="862" d="M-223 -264q0 29 21.5 47t45.5 18q20 0 39 -14q33 -27 74 -50.5t121 -23.5q45 0 85 12.5t76.5 48.5t72.5 100.5t77 168.5q-10 6 -19.5 22.5t-19.5 32.5q-29 55 -62.5 131t-67.5 158t-64.5 163t-55 147.5t-41 110.5t-18.5 52q-2 4 -3 9t-1 16q0 31 20.5 46t48.5 15 q29 0 42.5 -15.5t21.5 -35.5q10 -29 38 -105.5t63.5 -171t74.5 -189.5t74 -163q8 -16 15.5 -29.5t15.5 -23.5q18 51 47.5 133t65.5 176t72 193.5t66 185.5q8 18 22.5 31.5t41.5 13.5q29 0 48.5 -18.5t19.5 -46.5q0 -10 -9 -31l-274 -756q-55 -152 -108.5 -251t-111 -157.5 t-119.5 -81t-134 -22.5q-57 0 -99 9.5t-75 22.5t-57.5 31.5t-45.5 37.5q-10 8 -17 21t-7 32zM242 1171v70q0 29 19.5 47.5t47.5 18.5q29 0 48.5 -18.5t19.5 -47.5v-70q0 -29 -19.5 -48t-48.5 -19t-48 19.5t-19 47.5zM502 1171v70q0 29 19.5 47.5t47.5 18.5q29 0 48.5 -18.5 t19.5 -47.5v-70q0 -29 -19.5 -48t-48.5 -19t-48 19.5t-19 47.5z" />
<glyph unicode="&#x152;" horiz-adv-x="1701" d="M113 653q0 143 36.5 265t102 211.5t157 138.5t199.5 49h858q29 0 48.5 -17.5t19.5 -46.5t-19.5 -48t-48.5 -19h-471v-428h435q29 0 48 -19.5t19 -48.5t-19.5 -46t-47.5 -17h-435v-496h508q29 0 47.5 -18.5t18.5 -46.5q0 -29 -18.5 -47.5t-47.5 -18.5h-895q-111 0 -202 48 t-156.5 135t-101 207t-35.5 263zM252 653q0 -115 25.5 -211t71.5 -165.5t111.5 -107.5t147.5 -38h252v1055h-252q-80 0 -145.5 -40t-112.5 -110.5t-72.5 -168t-25.5 -214.5z" />
<glyph unicode="&#x153;" horiz-adv-x="1644" d="M90 471q0 111 30 200t85 153.5t131 99t168 34.5q55 0 110.5 -15t101.5 -45t79.5 -72t50.5 -95q14 53 50 95t84 72t105.5 45t116.5 15q82 0 146.5 -25.5t108.5 -65.5t66.5 -89t22.5 -94q0 -86 -43 -142.5t-124 -88t-196.5 -45t-258.5 -15.5q6 -55 26.5 -105t55 -88 t81 -59.5t105.5 -21.5q43 0 86 10t80 22.5t62.5 23.5t33.5 15q10 4 19.5 6.5t15.5 2.5q27 0 45 -19.5t18 -46.5q0 -23 -10 -36t-22 -21l-33 -17q-29 -14 -74 -29.5t-102.5 -28.5t-118.5 -13q-55 0 -112.5 16t-105.5 47t-82 72t-46 90q-12 -49 -45 -90t-79 -72t-102.5 -47 t-115.5 -16q-92 0 -168 34.5t-131 99t-85 152.5t-30 197zM229 471q0 -160 73 -256t202 -96t201.5 94t72.5 258q0 166 -73.5 261t-200.5 95t-201 -96t-74 -260zM918 516q264 4 376.5 44t112.5 124q0 23 -12.5 47.5t-38 46t-64.5 35.5t-90 14q-123 0 -198.5 -79.5 t-85.5 -231.5z" />
<glyph unicode="&#x178;" horiz-adv-x="995" d="M51 1255q0 27 18.5 44.5t51.5 17.5q25 0 41 -14.5t20 -30.5q4 -10 22.5 -54t46.5 -105.5t61.5 -132.5t66.5 -137.5t63.5 -120.5t53.5 -81q23 27 53.5 82t65 122.5t68.5 140.5t62.5 135.5t48 106.5t23.5 54q14 35 60 35q33 0 49 -17.5t16 -44.5q0 -14 -4 -24l-18 -45 q-18 -45 -49 -113.5t-70 -151.5t-81 -162t-83 -142.5t-74 -94.5v-454q0 -29 -19.5 -48.5t-47.5 -19.5q-29 0 -48.5 19.5t-19.5 48.5v454q-33 31 -72 89.5t-77.5 131t-75.5 150.5t-68 146.5t-51 119.5l-29 72q-4 16 -4 24zM315 1567v69q0 29 19.5 47.5t48.5 18.5t48.5 -18.5 t19.5 -47.5v-69q0 -29 -19.5 -48.5t-48.5 -19.5t-48.5 19.5t-19.5 48.5zM575 1567v69q0 29 19.5 47.5t48.5 18.5t48.5 -18.5t19.5 -47.5v-69q0 -29 -19.5 -48.5t-48.5 -19.5t-48.5 19.5t-19.5 48.5z" />
<glyph unicode="&#x2c6;" horiz-adv-x="854" d="M113 1153q0 14 7 30.5t27 26.5l248 131q16 10 33 11q16 0 33 -11l250 -133q16 -8 23 -25.5t7 -29.5q0 -29 -19.5 -46t-47.5 -17q-16 0 -33 10l-213 112l-215 -112q-20 -10 -35 -10q-29 0 -47 18t-18 45z" />
<glyph unicode="&#x2dc;" horiz-adv-x="798" d="M113 1151q0 23 10 41q16 25 53 48.5t103 23.5q39 0 66.5 -7.5t54 -14.5t54 -14t66.5 -7q33 0 55.5 19.5t47.5 19.5t44 -15.5t19 -48.5q0 -21 -10 -35q-16 -25 -53 -48t-103 -23q-39 0 -66.5 7t-54 14t-54.5 14.5t-66 7.5q-16 0 -29.5 -6.5t-26 -13.5t-24 -13t-23.5 -6 q-25 0 -44 12t-19 45z" />
<glyph unicode="&#x2000;" horiz-adv-x="922" />
<glyph unicode="&#x2001;" horiz-adv-x="1845" />
<glyph unicode="&#x2002;" horiz-adv-x="922" />
<glyph unicode="&#x2003;" horiz-adv-x="1845" />
<glyph unicode="&#x2004;" horiz-adv-x="615" />
<glyph unicode="&#x2005;" horiz-adv-x="461" />
<glyph unicode="&#x2006;" horiz-adv-x="307" />
<glyph unicode="&#x2007;" horiz-adv-x="307" />
<glyph unicode="&#x2008;" horiz-adv-x="230" />
<glyph unicode="&#x2009;" horiz-adv-x="369" />
<glyph unicode="&#x200a;" horiz-adv-x="102" />
<glyph unicode="&#x2010;" horiz-adv-x="980" d="M195 483q0 29 19 47.5t48 18.5h457q29 0 48 -18.5t19 -47.5t-19 -47t-48 -18h-457q-29 0 -48 18.5t-19 46.5z" />
<glyph unicode="&#x2011;" horiz-adv-x="980" d="M195 483q0 29 19 47.5t48 18.5h457q29 0 48 -18.5t19 -47.5t-19 -47t-48 -18h-457q-29 0 -48 18.5t-19 46.5z" />
<glyph unicode="&#x2012;" horiz-adv-x="980" d="M195 483q0 29 19 47.5t48 18.5h457q29 0 48 -18.5t19 -47.5t-19 -47t-48 -18h-457q-29 0 -48 18.5t-19 46.5z" />
<glyph unicode="&#x2013;" horiz-adv-x="1042" d="M166 481q0 29 19.5 47.5t47.5 18.5h574q29 0 48 -18.5t19 -47.5t-19 -47t-48 -18h-574q-29 0 -48 18.5t-19 46.5z" />
<glyph unicode="&#x2014;" horiz-adv-x="1267" d="M166 481q0 29 19.5 47.5t47.5 18.5h801q29 0 48.5 -18.5t19.5 -47.5t-19.5 -47t-48.5 -18h-801q-29 0 -48 18.5t-19 46.5z" />
<glyph unicode="&#x2018;" horiz-adv-x="479" d="M133 1239v10q0 29 19.5 48.5t48.5 19.5t48 -19.5t19 -48.5q0 -25 2 -54.5t8.5 -59t15.5 -56t25 -45.5q10 -12 16.5 -23.5t6.5 -27.5q0 -29 -19.5 -46t-48.5 -17q-43 0 -70.5 37.5t-43 90t-21.5 106.5t-6 85z" />
<glyph unicode="&#x2019;" horiz-adv-x="479" d="M133 983q0 16 6 27.5t17 23.5q14 18 24 45t16.5 56.5t8.5 59.5t2 54q0 29 19 48.5t48 19.5t48.5 -19.5t19.5 -48.5v-10q0 -31 -6 -85t-21.5 -106.5t-43 -90t-70.5 -37.5q-29 0 -48.5 17t-19.5 46z" />
<glyph unicode="&#x201a;" horiz-adv-x="481" d="M133 -174q0 16 6 27.5t17 23.5q14 18 24 45t16.5 56.5t8.5 59.5t2 54q0 29 19 48.5t48 19.5t48.5 -19.5t19.5 -48.5v-10q0 -31 -6 -85t-21.5 -106.5t-43 -90.5t-70.5 -38q-29 0 -48.5 17.5t-19.5 46.5z" />
<glyph unicode="&#x201c;" horiz-adv-x="741" d="M133 1239v10q0 29 19.5 48.5t48.5 19.5t48 -19.5t19 -48.5q0 -25 2 -54.5t8.5 -59t15.5 -56t25 -45.5q10 -12 16.5 -23.5t6.5 -27.5q0 -29 -19.5 -46t-48.5 -17q-43 0 -70.5 37.5t-43 90t-21.5 106.5t-6 85zM395 1239v10q0 29 19.5 48.5t48.5 19.5t48 -19.5t19 -48.5 q0 -25 2.5 -54.5t8.5 -59t15 -56t26 -45.5q10 -12 16 -23.5t6 -27.5q0 -29 -19.5 -46t-47.5 -17q-43 0 -71 37.5t-43 90t-21.5 106.5t-6.5 85z" />
<glyph unicode="&#x201d;" horiz-adv-x="741" d="M133 983q0 16 6 27.5t17 23.5q14 18 24 45t16.5 56.5t8.5 59.5t2 54q0 29 19 48.5t48 19.5t48.5 -19.5t19.5 -48.5v-10q0 -31 -6 -85t-21.5 -106.5t-43 -90t-70.5 -37.5q-29 0 -48.5 17t-19.5 46zM395 983q0 16 6.5 27.5t16.5 23.5q14 18 24.5 45t16.5 56.5t8 59.5t2 54 q0 29 19.5 48.5t48.5 19.5t48 -19.5t19 -48.5v-10q0 -31 -6 -85t-21.5 -106.5t-43 -90t-70.5 -37.5q-29 0 -48.5 17t-19.5 46z" />
<glyph unicode="&#x201e;" horiz-adv-x="741" d="M133 -174q0 16 6 27.5t17 23.5q14 18 24 45t16.5 56.5t8.5 59.5t2 54q0 29 19 48.5t48 19.5t48.5 -19.5t19.5 -48.5v-10q0 -31 -6 -85t-21.5 -106.5t-43 -90.5t-70.5 -38q-29 0 -48.5 17.5t-19.5 46.5zM395 -174q0 16 6.5 27.5t16.5 23.5q14 18 24.5 45t16.5 56.5t8 59.5 t2 54q0 29 19.5 48.5t48.5 19.5t48 -19.5t19 -48.5v-10q0 -31 -6 -85t-21.5 -106.5t-43 -90.5t-70.5 -38q-29 0 -48.5 17.5t-19.5 46.5z" />
<glyph unicode="&#x2022;" horiz-adv-x="532" d="M147 532q0 51 35 86t84 35q51 0 85 -34.5t34 -86.5q0 -49 -34 -82.5t-85 -33.5q-49 0 -84 33.5t-35 82.5z" />
<glyph unicode="&#x2026;" horiz-adv-x="825" d="M147 55v68q0 29 19.5 48t48.5 19t48.5 -19t19.5 -48v-68q0 -29 -19.5 -48t-48.5 -19t-48.5 19.5t-19.5 47.5zM346 55v68q0 29 19.5 48t48.5 19t48 -19t19 -48v-68q0 -29 -19.5 -48t-47.5 -19q-29 0 -48.5 19.5t-19.5 47.5zM545 55v68q0 29 19.5 48t47.5 19q29 0 48.5 -19 t19.5 -48v-68q0 -29 -19.5 -48t-48.5 -19t-48 19.5t-19 47.5z" />
<glyph unicode="&#x202f;" horiz-adv-x="369" />
<glyph unicode="&#x2039;" horiz-adv-x="600" d="M133 469q0 20 10 37l203 295q20 27 55 26q29 0 48.5 -18t19.5 -47q0 -18 -14 -39l-179 -254l183 -268q10 -18 10 -37q0 -29 -20.5 -47.5t-49.5 -18.5q-33 0 -53 27l-205 309q-4 6 -6 13.5t-2 21.5z" />
<glyph unicode="&#x203a;" horiz-adv-x="602" d="M133 164q0 18 10 37l183 268l-179 254q-14 20 -14 39q0 27 19.5 46t48.5 19q37 0 55 -28l203 -293q10 -16 10 -37q0 -14 -2 -21.5t-6 -13.5l-205 -309q-20 -27 -55 -27q-29 0 -48.5 18.5t-19.5 47.5z" />
<glyph unicode="&#x205f;" horiz-adv-x="461" />
<glyph unicode="&#x20ac;" horiz-adv-x="1179" d="M133 520q0 29 19.5 47.5t48.5 18.5h35q-2 16 -3 26v76q0 14 3 31h-35q-29 0 -48.5 18.5t-19.5 46.5q0 29 19.5 47.5t48.5 18.5h51q20 100 65 188t107.5 152.5t140.5 101.5t166 37q98 0 158.5 -24.5t95.5 -47.5q14 -8 21.5 -23t7.5 -32q0 -31 -22.5 -49t-47.5 -18 q-20 0 -39 12q-23 16 -68.5 33.5t-105.5 17.5q-66 0 -121 -26.5t-98 -72.5t-72.5 -110.5t-46.5 -138.5h432q29 0 48.5 -18.5t19.5 -47.5t-19.5 -47t-48.5 -18h-448q-2 -16 -3 -29.5t-1 -42.5v-35q0 -10 2 -26h450q29 0 48.5 -18.5t19.5 -47.5t-19.5 -47t-48.5 -18h-430 q14 -72 43 -133.5t70 -106.5t92 -70.5t113 -25.5q39 0 69.5 5t56 15.5t50 25.5t53.5 34q18 10 39 10q33 0 50.5 -20.5t17.5 -49.5q0 -31 -25 -49q-68 -47 -140.5 -74.5t-170.5 -27.5q-90 0 -166 34.5t-135.5 97t-100.5 147.5t-59 188h-51q-29 0 -48.5 18.5t-19.5 46.5z" />
<glyph unicode="&#x2122;" horiz-adv-x="1523" d="M133 1460q0 23 14.5 36t34.5 13h420q20 0 34.5 -13t14.5 -36t-14 -36t-35 -13h-162v-577q0 -23 -14 -36.5t-37 -13.5t-37 13.5t-14 36.5v577h-156q-20 0 -34.5 13.5t-14.5 35.5zM653 836l72 628q4 20 18.5 32.5t30.5 12.5h39q23 0 33 -10t14 -26l160 -539l166 539 q4 16 17.5 26t31.5 10h37q20 0 33.5 -14t15.5 -33l70 -626q0 -23 -12.5 -37.5t-35.5 -14.5q-18 0 -34.5 10.5t-18.5 32.5l-51 506l-158 -514q-6 -16 -15 -25.5t-32 -9.5h-28q-37 0 -48 35l-151 514l-53 -506q-2 -23 -17.5 -33t-34.5 -10q-49 0 -49 52z" />
<glyph unicode="&#x25fc;" horiz-adv-x="942" d="M0 0v942h942v-942h-942z" />
<glyph unicode="&#xfb01;" horiz-adv-x="1105" d="M10 881q0 29 19.5 47t48.5 18h102q8 154 57.5 244t113 137t130 61.5t113.5 14.5q90 0 178 -21.5t154 -68.5q10 -8 19 -20.5t9 -30.5v-72q0 -29 -19.5 -48.5t-47.5 -19.5q-29 0 -48.5 19.5t-19.5 48.5v37q-41 20 -105.5 32.5t-119.5 12.5q-37 0 -83 -11.5t-88 -46 t-71.5 -98t-36.5 -170.5h238q29 0 48.5 -18.5t19.5 -46.5q0 -29 -19.5 -47.5t-48.5 -18.5h-240v-747q0 -29 -19.5 -48.5t-47.5 -19.5q-29 0 -48.5 19.5t-19.5 48.5v747h-100q-29 0 -48.5 18.5t-19.5 47.5zM819 68v811q0 29 19.5 48t48.5 19t48 -19.5t19 -47.5v-811 q0 -29 -19.5 -48.5t-47.5 -19.5q-29 0 -48.5 19.5t-19.5 48.5z" />
<glyph unicode="&#xfb02;" horiz-adv-x="1155" d="M10 883q0 29 19.5 46t48.5 17h102q8 154 57.5 244t113 137t130 61.5t113.5 14.5q90 0 179 -22.5t153 -67.5q4 -4 17 -19.5t13 -44.5v-901q0 -63 4.5 -104t16.5 -65.5t31.5 -35t50.5 -10.5q29 0 48 -18.5t19 -46.5q0 -29 -19.5 -48.5t-47.5 -19.5q-70 0 -115 16.5 t-72.5 56.5t-39 107.5t-11.5 167.5v879q-41 20 -105.5 32.5t-121.5 12.5q-37 0 -83 -12.5t-87 -47t-71.5 -98t-37.5 -168.5h238q29 0 48.5 -17.5t19.5 -45.5q0 -29 -19.5 -48.5t-48.5 -19.5h-240v-747q0 -29 -19.5 -48.5t-47.5 -19.5q-29 0 -48.5 19.5t-19.5 48.5v747h-100 q-29 0 -48.5 19.5t-19.5 48.5z" />
</font>
</defs>
</svg>
