<?xml version="1.0" standalone="no"?>
<!DOCTYPE svg PUBLIC "-//W3C//DTD SVG 1.1//EN" "http://www.w3.org/Graphics/SVG/1.1/DTD/svg11.dtd" >
<svg xmlns="http://www.w3.org/2000/svg">
<metadata>Generated by IcoMoon</metadata>
<defs>
<font id="icomoon-vahle" horiz-adv-x="1024">
<font-face units-per-em="1024" ascent="960" descent="-64" />
<missing-glyph horiz-adv-x="1024" />
<glyph unicode="&#x20;" horiz-adv-x="512" d="" />
<glyph unicode="&#xe900;" glyph-name="arrow-left" horiz-adv-x="1075" d="M420.348 257.971l-190.030 190.029 190.030 190.030 39.63-38.81-123.488-123.488h482.791v-55.462h-482.791l123.488-123.489-39.63-38.81z" />
<glyph unicode="&#xe901;" glyph-name="arrow-right" horiz-adv-x="1075" d="M646.236 257.971l-39.629 38.81 123.484 123.489h-465.557v55.462h465.557l-123.484 123.488 39.629 38.81 190.029-190.030-190.029-190.029z" />
<glyph unicode="&#xe902;" glyph-name="minus" d="M241.779 417.185v61.628h540.443v-61.628h-540.443z" />
<glyph unicode="&#xe903;" glyph-name="check" d="M417.186 245.015l-172.762 172.761 43.577 43.577 129.185-129.184 318.814 318.814 43.577-43.577-362.391-362.391z" />
<glyph unicode="&#xe904;" glyph-name="chevron-up" d="M512 513.971l-196.267-196.267-44.963 44.962 241.231 241.23 241.229-241.23-44.962-44.962-196.267 196.267z" />
<glyph unicode="&#xe905;" glyph-name="chevron-down" d="M512 317.705l-241.231 241.229 44.963 44.963 196.267-196.268 196.267 196.268 44.962-44.963-241.229-241.229z" />
<glyph unicode="&#xe906;" glyph-name="chevron-left" d="M614.4 206.771l-241.23 241.229 241.23 241.23 39.629-39.63-201.599-201.6 201.599-201.6-39.629-39.629z" />
<glyph unicode="&#xe907;" glyph-name="chevron-right" d="M571.571 448l-201.601 201.6 39.63 39.63 241.229-241.23-241.229-241.229-39.63 39.629 201.601 201.6z" />
<glyph unicode="&#xe908;" glyph-name="download" d="M512 303.432l-173.618 173.616 39.63 38.81 106.256-106.257v375.469h55.462v-375.469l106.26 106.257 39.629-38.81-173.619-173.616zM294.427 162.135c-19.217 0-35.403 6.636-48.559 19.896s-19.733 29.496-19.733 48.701v64.492h55.465v-64.492c0-3.282 1.368-6.292 4.102-9.027 2.736-2.734 5.745-4.101 9.028-4.101h434.543c3.282 0 6.287 1.367 9.027 4.101 2.734 2.734 4.101 5.745 4.101 9.027v64.492h55.465v-64.492c0-19.205-6.636-35.441-19.907-48.701s-29.512-19.896-48.732-19.896h-434.8z" />
<glyph unicode="&#xe909;" glyph-name="newsletter" d="M192.33 162.13c-19.206 0-35.44 6.636-48.702 19.907s-19.893 29.517-19.893 48.732v434.802c0 19.217 6.631 35.404 19.893 48.559s29.496 19.734 48.702 19.734h407.381c-0.599-8.534-0.614-17.531-0.036-26.994 0.573-9.464 2.089-18.954 4.552-28.472h-418.462l326.236-190.933 147.692 87.631c7.496-7.056 17.777-13.948 30.853-20.676 13.071-6.729 24.228-11.597 33.475-14.605l-212.019-124.142-332.8 195.854v-380.799c0-3.83 1.231-6.973 3.693-9.436s5.608-3.697 9.437-3.697h639.343c3.83 0 6.973 1.234 9.436 3.697s3.692 5.606 3.692 9.436v295.623c10.117 2.41 19.553 6.036 28.308 10.876 8.75 4.841 17.802 10.161 27.156 15.959v-322.212c0-19.584-6.753-35.953-20.265-49.111-13.512-13.153-29.619-19.732-48.328-19.732h-639.343zM793.6 595.853c-32.548 0-60.237 11.419-83.077 34.256-22.835 22.837-34.253 50.529-34.253 83.076s11.418 60.239 34.253 83.077c22.84 22.838 50.529 34.257 83.077 34.257s60.237-11.419 83.077-34.257c22.835-22.838 34.253-50.53 34.253-83.077s-11.418-60.239-34.253-83.076c-22.84-22.837-50.529-34.256-83.077-34.256z" />
<glyph unicode="&#xe90a;" glyph-name="youtube" d="M911.36 611.84c-10.24 66.56-40.96 112.64-112.64 122.88-112.64 20.48-286.72 20.48-286.72 20.48s-174.080 0-286.72-20.48c-71.68-10.24-107.52-56.32-112.64-122.88-10.24-66.56-10.24-163.84-10.24-163.84s0-97.28 10.24-163.84c10.24-66.56 40.96-112.64 112.64-122.88 112.64-20.48 286.72-20.48 286.72-20.48s174.080 0 286.72 20.48c71.68 15.36 102.4 56.32 112.64 122.88s10.24 163.84 10.24 163.84c0 0 0 97.28-10.24 163.84zM409.6 294.4v307.2l256-153.6-256-153.6z" />
<glyph unicode="&#xe90b;" glyph-name="facebook" d="M401.101 64l-1.101 336h-144v144h144v96c0 129.562 80.232 192 195.809 192 55.363 0 102.948-4.122 116.813-5.964v-135.399l-80.159-0.037c-62.858 0-75.028-29.869-75.028-73.699v-72.901h178.565l-48-144h-130.565v-336h-156.334z" />
<glyph unicode="&#xe90c;" glyph-name="linkedin" d="M839.040 806.4h-654.080c-17.92 0-31.36-13.44-31.36-31.36v-658.56c0-13.44 13.44-26.88 31.36-26.88h658.56c17.92 0 31.36 13.44 31.36 31.36v654.080c-4.48 17.92-17.92 31.36-35.84 31.36zM364.16 197.12h-103.040v340.48h107.52v-340.48h-4.48zM314.88 582.4c-35.84 0-62.72 31.36-62.72 62.72 0 35.84 26.88 62.72 62.72 62.72s62.72-26.88 62.72-62.72c-4.48-31.36-31.36-62.72-62.72-62.72zM762.88 197.12h-107.52v165.76c0 40.32 0 89.6-53.76 89.6s-62.72-44.8-62.72-89.6v-170.24h-107.52v344.96h103.040v-44.8c13.44 26.88 49.28 53.76 98.56 53.76 107.52 0 125.44-71.68 125.44-161.28v-188.16h4.48z" />
<glyph unicode="&#xe90d;" glyph-name="double-chevron-down" d="M512 204.39l-241.23 241.229 39.63 39.631 201.6-202.012 201.6 202.012 39.629-39.631-241.229-241.229zM512 459.57l-241.23 241.23 39.63 39.63 201.6-202.011 201.6 202.011 39.629-39.63-241.229-241.23z" />
<glyph unicode="&#xe90e;" glyph-name="quote" d="M405.504 475.136l-245.76-414.72h-159.744l211.968 414.72h-211.968v420.864h405.504v-420.864zM998.4 475.136l-254.976-414.72h-159.744l205.824 414.72h-205.824v420.864h414.72v-420.864z" />
<glyph unicode="&#xe90f;" glyph-name="check-circle" d="M451.447 266.505l286.848 286.849-44.962 44.963-241.886-241.888-121.602 121.6-44.963-44.962 166.565-166.562zM512.068 42.667c-56.060 0-108.754 10.641-158.082 31.915-49.329 21.278-92.238 50.15-128.727 86.626-36.49 36.471-65.378 79.364-86.663 128.67s-31.929 101.99-31.929 158.050c0 56.064 10.638 108.757 31.915 158.085s50.151 92.238 86.624 128.727c36.474 36.49 79.364 65.378 128.671 86.663s101.991 31.929 158.051 31.929 108.757-10.638 158.084-31.915c49.331-21.277 92.237-50.151 128.73-86.624 36.489-36.474 65.374-79.364 86.66-128.671s31.932-101.99 31.932-158.050c0-56.064-10.641-108.757-31.915-158.084-21.278-49.331-50.155-92.241-86.626-128.73s-79.364-65.378-128.67-86.665c-49.306-21.282-101.99-31.927-158.054-31.927zM512 106.667c95.287 0 176 33.067 242.133 99.2s99.2 146.846 99.2 242.133c0 95.289-33.067 176-99.2 242.133s-146.846 99.2-242.133 99.2c-95.29 0-176.001-33.067-242.134-99.2s-99.2-146.844-99.2-242.133c0-95.287 33.067-176 99.2-242.133s146.844-99.2 242.134-99.2z" />
<glyph unicode="&#xe910;" glyph-name="location" d="M512.297 453.744c18.949 0 35.067 6.746 48.358 20.238 13.292 13.491 19.937 29.71 19.937 48.656s-6.743 35.064-20.234 48.356c-13.491 13.292-29.711 19.938-48.657 19.938s-35.065-6.746-48.357-20.237c-13.292-13.492-19.938-29.711-19.938-48.656s6.746-35.065 20.237-48.357c13.492-13.292 29.711-19.938 48.655-19.938zM511.999 132.756c81.342 71.168 144.681 140.529 190.029 208.082 45.348 67.558 68.024 127.127 68.024 178.711 0 74.939-24.356 137.285-73.068 187.036s-110.372 74.626-184.986 74.626c-74.612 0-136.273-24.876-184.985-74.626s-73.066-112.096-73.066-187.036c0-51.583 22.673-111.152 68.020-178.711 45.348-67.553 108.691-136.914 190.031-208.082zM511.999 59.325c-104.515 88.852-182.896 171.556-235.144 248.095-52.249 76.544-78.372 147.253-78.372 212.129 0 87.082 29.183 161.639 87.548 223.67s133.51 93.046 225.435 93.046c91.926 0 167.246-31.015 225.967-93.046s88.084-136.588 88.084-223.67c0-64.876-25.943-135.426-77.829-211.653-51.881-76.221-130.447-159.084-235.689-248.571z" />
<glyph unicode="&#xe911;" glyph-name="phone" d="M792.12 112c-77.563 6.4-152.12 26.875-223.667 61.414-71.551 34.545-136.33 80.891-194.339 139.039-58.011 58.148-103.932 122.747-137.764 193.803s-54.304 145.367-61.415 222.932c-1.422 15.051 2.946 28.126 13.105 39.226s22.857 16.651 38.095 16.651h111.424c12.91 0 24.014-3.87 33.313-11.611s15.781-17.846 19.445-30.318l22.318-89.271c1.696-9.518 1.163-18.817-1.6-27.897-2.762-9.080-7.261-16.465-13.497-22.154l-98.543-95.918c15.863-29.757 33.45-57.764 52.76-84.018 19.31-26.26 40.467-50.816 63.474-73.667 22.724-22.712 47.268-43.75 73.634-63.114 26.364-19.369 54.837-36.982 85.413-52.844l101.089 98.708c5.965 6.236 12.8 10.394 20.511 12.472 7.716 2.079 16.333 2.406 25.851 0.983l85.412-18.79c12.908-3.553 23.122-10.117 30.643-19.692 7.526-9.574 11.284-20.951 11.284-34.135v-110.602c0-15.237-5.729-27.935-17.183-38.093-11.459-10.158-24.709-14.531-39.762-13.107zM274.051 562.050l80.411 77.129c1.368 1.094 2.256 2.599 2.667 4.513s0.342 3.693-0.205 5.334l-18.715 74.011c-0.547 2.188-1.504 3.829-2.872 4.923s-3.146 1.641-5.335 1.641h-92.136c-1.64 0-3.008-0.547-4.102-1.641s-1.641-2.461-1.641-4.103c2.188-27.022 6.961-53.976 14.318-80.862 7.358-26.886 16.562-53.867 27.611-80.944zM630.318 208.246c25.508-11.223 52.178-19.743 80.010-25.564 27.837-5.821 53.678-10.102 77.527-12.836 1.644 0 3.011 0.548 4.101 1.644 1.096 1.091 1.644 2.458 1.644 4.101v91.899c0 2.186-0.548 3.963-1.644 5.33-1.091 1.367-2.734 2.324-4.92 2.872l-69.335 15.017c-1.638 0.548-3.077 0.614-4.306 0.205-1.234-0.41-2.529-1.3-3.896-2.668l-79.181-80z" />
<glyph unicode="&#xe912;" glyph-name="at" d="M512.42 59.735c-53.539 0-103.883 10.102-151.033 30.316-47.151 20.209-88.438 48.015-123.86 83.42-35.423 35.41-63.245 76.682-83.464 123.827s-30.328 97.516-30.328 151.119c0 53.602 10.105 103.823 30.314 150.662 20.21 46.84 48.018 87.971 83.424 123.394s76.682 63.245 123.826 83.464c47.144 20.219 97.517 30.328 151.116 30.328 53.606 0 103.823-10.106 150.666-30.32 46.838-20.213 87.972-48.027 123.392-83.44 35.425-35.414 63.247-76.533 83.466-123.36s30.326-97.208 30.326-151.145v-54.154c0-35.994-12.662-66.54-37.98-91.648s-56.038-37.663-92.155-37.663c-24.448 0-46.536 6.866-66.253 20.593-19.722 13.732-35.517 31.375-47.391 52.925-17.613-21.99-38.984-39.741-64.118-53.253s-51.922-20.265-80.369-20.265c-50.917 0-94.224 17.869-129.921 53.617-35.697 35.743-53.544 79.104-53.544 130.089s17.872 94.267 53.616 129.85 79.107 53.374 130.090 53.374c50.985 0 94.269-17.848 129.853-53.544 35.579-35.697 53.371-79.004 53.371-129.921v-54.154c0-20.352 7.383-37.75 22.154-52.188s32.271-21.658 52.511-21.658c20.244 0 37.745 7.219 52.516 21.658s22.154 31.836 22.154 52.188v54.154c0 92.445-32.353 171.022-97.065 235.734s-143.288 97.066-235.735 97.066c-92.445 0-171.022-32.355-235.734-97.066s-97.066-143.289-97.066-235.734c0-92.447 32.355-171.023 97.066-235.735s143.289-97.065 235.734-97.065h204.8v-55.465h-204.38zM512 320c35.553 0 65.777 12.447 90.665 37.335s37.335 55.112 37.335 90.665c0 35.555-12.447 65.778-37.335 90.666s-55.112 37.334-90.665 37.334c-35.555 0-65.778-12.445-90.666-37.334s-37.334-55.111-37.334-90.666c0-35.553 12.444-65.777 37.334-90.665s55.111-37.335 90.666-37.335z" />
<glyph unicode="&#xe913;" glyph-name="instagram" d="M512 832c-104.289 0-117.366-0.429-158.403-2.3-31.822-0.647-63.293-6.73-93.102-17.9-25.631-9.626-48.836-24.747-67.999-44.3-19.553-19.164-34.674-42.369-44.3-67.999-11.17-29.804-17.253-61.276-17.9-93.102-1.871-41.035-2.3-54.108-2.3-158.403 0-104.289 0.429-117.268 2.3-158.3 0.647-31.826 6.73-63.299 17.9-93.102 9.626-25.631 24.747-48.836 44.3-67.999 19.164-19.553 42.369-34.675 67.999-44.3 29.834-11.182 61.348-17.265 93.199-17.9 40.939-1.874 54.011-2.3 158.3-2.3s117.268 0.426 158.3 2.3c31.857 0.635 63.365 6.718 93.199 17.9 25.508 9.871 48.662 24.962 67.999 44.3s34.429 42.492 44.3 67.999c11.182 29.834 17.265 61.348 17.9 93.199 1.874 40.94 2.3 53.914 2.3 158.3s-0.426 117.366-2.3 158.403c-0.686 31.795-6.808 63.232-18 93-9.626 25.631-24.747 48.836-44.3 67.999-19.164 19.553-42.369 34.674-67.999 44.3-29.804 11.17-61.281 17.253-93.102 17.9-41.032 1.871-54.011 2.3-158.3 2.3zM512 762.9v-0.1c102.513 0 114.596-0.376 155.1-2.2 24.34-0.292 48.48-4.827 71.301-13.3 16.691-6.167 31.73-16.012 44.1-28.8 12.79-12.372 22.63-27.408 28.8-44.1 8.468-22.82 13.008-46.959 13.3-71.301 1.823-40.507 2.2-52.731 2.2-155.1 0-102.374-0.377-114.688-2.2-155.197-0.292-24.34-4.832-48.48-13.3-71.301-6.374-16.563-16.151-31.551-28.7-44.1s-27.537-22.326-44.1-28.7c-22.82-8.468-46.96-13.008-71.301-13.3-40.509-1.823-52.828-2.2-155.197-2.2s-114.591 0.377-155.1 2.2c-24.342 0.292-48.479 4.832-71.301 13.3-16.691 6.17-31.728 16.010-44.1 28.8-12.788 12.37-22.633 27.409-28.8 44.1-8.473 22.82-13.008 46.96-13.3 71.301-1.824 40.504-2.2 52.731-2.2 155.1s0.376 114.693 2.2 155.197c0.292 24.341 4.827 48.479 13.3 71.301 6.167 16.691 16.012 31.728 28.8 44.1 12.372 12.789 27.409 22.634 44.1 28.8 22.821 8.473 46.959 13.008 71.301 13.3 40.507 1.824 52.731 2.2 155.1 2.2zM716.902 699.1c-25.446 0-46.1-20.654-46.1-46.1s20.654-46.1 46.1-46.1 46.1 20.654 46.1 46.1c0 25.446-20.654 46.1-46.1 46.1zM512 645.202c-38.994 0-77.179-11.536-109.599-33.2-32.422-21.664-57.677-52.475-72.602-88.499-14.923-36.026-18.807-75.653-11.2-113.9s26.327-73.426 53.898-101.002c27.573-27.571 62.756-46.292 101.002-53.898 38.245-7.608 77.87-3.725 113.9 11.2 36.024 14.925 66.831 40.175 88.499 72.602 21.663 32.42 33.2 70.502 33.2 109.501 0 25.891-5.093 51.579-15 75.5s-24.396 45.692-42.7 64c-18.309 18.308-40.079 32.792-64 42.7s-49.511 15-75.402 15zM515.1 576c15.657-0.388 31.179-3.645 45.8-9.7 23.388-9.688 43.436-26.051 57.498-47.1s21.6-45.884 21.6-71.199c0-33.948-13.492-66.499-37.5-90.501-24.003-24.008-56.55-37.5-90.501-37.5-25.316 0-50.15 7.536-71.199 21.6s-37.412 34.112-47.1 57.498c-9.688 23.393-12.239 49.071-7.3 73.902 4.939 24.829 17.099 47.699 35 65.597s40.771 30.061 65.597 35c9.311 1.852 18.705 2.633 28.1 2.4z" />
<glyph unicode="&#xe914;" glyph-name="arrow-outward" d="M254.686 207.181l-39.219 39.219 442.258 442.666h-395.571v55.465h490.665v-490.666h-55.465v395.572l-442.668-442.256z" />
<glyph unicode="&#xe915;" glyph-name="add-calendar" d="M740.27 49.065v115.2h-115.2v55.465h115.2v115.2h55.46v-115.2h115.2v-55.465h-115.2v-115.2h-55.46zM243.53 162.135c-18.708-0.712-34.818 5.868-48.329 19.732s-20.266 30.152-20.266 48.86v434.542c0 19.206 6.755 35.44 20.266 48.702s29.621 19.893 48.329 19.893h67.611v107.322h57.106v-107.322h186.746v107.322h55.465v-107.322h67.615c18.708 0 34.995-6.578 48.86-19.734s20.444-29.443 19.732-48.862v-222.195c-9.242-0.819-18.488-2.299-27.735-4.429-9.242-2.135-18.483-4.925-27.73-8.371v55.795h-460.8v-255.342c0-3.282 1.368-6.292 4.102-9.027 2.736-2.734 5.745-4.101 9.028-4.101h276.76c-1.423-8.535-2.365-17.423-2.831-26.665-0.466-9.247-0.369-18.847 0.287-28.8h-274.215zM230.4 541.535h460.8v123.735c0 3.282-1.367 6.291-4.101 9.027-2.739 2.735-5.745 4.102-9.027 4.102h-434.543c-3.282 0-6.292-1.367-9.028-4.102-2.735-2.736-4.102-5.745-4.102-9.027v-123.735z" />
<glyph unicode="&#xe916;" glyph-name="mail" d="M192.33 162.135c-19.206 0-35.44 6.636-48.702 19.907s-19.893 29.512-19.893 48.732v434.8c0 19.217 6.631 35.403 19.893 48.559s29.496 19.733 48.702 19.733h639.343c19.205 0 35.436-6.636 48.701-19.906 13.261-13.271 19.891-29.515 19.891-48.732v-434.802c0-19.215-6.63-35.405-19.891-48.558-13.266-13.153-29.496-19.732-48.701-19.732h-639.343zM512 415.672l-332.8 195.857v-380.802c0-3.83 1.231-6.973 3.693-9.436s5.608-3.692 9.437-3.692h639.343c3.83 0 6.973 1.229 9.436 3.692s3.692 5.606 3.692 9.436v380.802l-332.8-195.857zM512 487.466l326.236 190.934h-652.472l326.236-190.934zM179.2 611.53v66.87-447.672c0-3.83 1.231-6.973 3.693-9.436s5.608-3.692 9.437-3.692h-13.13v393.93z" />
<glyph unicode="&#xe917;" glyph-name="plus" horiz-adv-x="1075" d="M509.868 420.27h-206.933v55.462h206.933v206.933h55.462v-206.933h206.935v-55.462h-206.935v-206.935h-55.462v206.935z" />
<glyph unicode="&#xe918;" glyph-name="globe" d="M512 59.735c-53.443 0-103.754 10.117-150.932 30.356s-88.41 48-123.693 83.282c-35.282 35.282-63.042 76.513-83.281 123.694-20.24 47.181-30.36 97.49-30.36 150.932 0 53.88 10.12 104.301 30.36 151.261 20.239 46.961 47.999 88.082 83.281 123.364s76.513 63.042 123.693 83.281c47.179 20.24 97.489 30.36 150.932 30.36 53.878 0 104.3-10.12 151.26-30.36s88.084-47.999 123.366-83.281 63.043-76.404 83.282-123.364c20.239-46.96 30.356-97.38 30.356-151.261 0-53.443-10.117-103.752-30.356-150.932s-48-88.412-83.282-123.694c-35.282-35.282-76.406-63.043-123.366-83.282s-97.382-30.356-151.26-30.356zM512 117.171c15.37 15.37 29.783 40.407 43.244 75.116 13.455 34.708 23.793 73.395 31.012 116.065h-148.512c7.767-43.766 18.243-82.995 31.426-117.704s27.46-59.203 42.831-73.477zM443.242 122.501c-13.511 21.335-25.71 48.195-36.595 80.579-10.886 32.379-19.228 67.471-25.026 105.272h-171.407c22.537-49.29 54.36-90.245 95.468-122.875s86.962-53.622 137.561-62.976zM580.756 122.501c50.601 9.354 96.451 30.346 137.559 62.976s72.934 73.585 95.473 122.875h-171.407c-7.168-38.072-16.195-73.303-27.080-105.687s-22.4-59.105-34.545-80.164zM190.851 363.812h185.273c-1.969 15.155-3.2 29.993-3.692 44.513-0.492 14.525-0.738 28.462-0.738 41.808s0.246 26.927 0.738 40.739c0.492 13.812 1.723 27.583 3.692 41.313h-185.273c-4.102-13.785-7.070-27.788-8.902-42.011s-2.749-28.281-2.749-42.175c0-13.896 0.916-27.955 2.749-42.173 1.832-14.223 4.8-28.227 8.902-42.015zM432.656 363.812h158.689c1.966 15.867 3.2 30.566 3.692 44.104 0.492 13.542 0.737 26.9 0.737 40.084s-0.246 26.722-0.737 40.615c-0.492 13.895-1.725 28.418-3.692 43.57h-158.689c-1.969-15.152-3.2-29.676-3.693-43.57s-0.738-27.432-0.738-40.615 0.246-26.721 0.738-40.617c0.493-13.891 1.723-28.416 3.693-43.571zM647.875 363.812h185.272c4.106 13.788 7.071 27.791 8.904 42.015 1.833 14.218 2.749 28.278 2.749 42.173s-0.916 28.13-2.749 42.708-4.797 28.403-8.904 41.477h-185.272c1.971-15.152 3.2-29.99 3.692-44.513s0.742-28.459 0.742-41.807c0-13.343-0.251-26.926-0.742-40.74-0.492-13.809-1.72-27.581-3.692-41.313zM642.381 587.65h171.407c-22.815 49.833-54.431 90.791-94.853 122.874-40.428 32.081-86.487 53.21-138.179 63.385 13.512-22.701 25.574-50.038 36.183-82.011 10.614-31.973 19.092-66.722 25.441-104.247zM437.743 587.65h148.512c-7.767 43.487-18.447 82.927-32.041 118.319-13.594 35.391-27.663 59.679-42.214 72.862-14.551-13.183-28.623-37.471-42.215-72.862-13.594-35.392-24.274-74.832-32.041-118.319zM210.214 587.65h171.407c6.345 37.526 14.824 72.274 25.437 104.247s22.673 59.31 36.185 82.011c-51.966-10.175-98.093-31.372-138.381-63.59-40.287-32.219-71.836-73.108-94.647-122.668z" />
<glyph unicode="&#xe919;" glyph-name="search" d="M813.537 107.653l-254.111 254.111c-21.335-16.189-44.728-28.728-70.18-37.622-25.452-8.888-51.715-13.332-78.789-13.332-66.55 0-123.125 23.296-169.725 69.883s-69.901 103.134-69.901 169.639c0 66.506 23.294 123.076 69.881 169.708s103.135 69.947 169.64 69.947 123.074-23.3 169.707-69.901c46.633-46.6 69.949-103.175 69.949-169.724 0-27.895-4.582-54.568-13.747-80.020-9.16-25.455-21.565-48.433-37.207-68.949l254.111-254.111-39.629-39.629zM410.42 366.275c51.419 0 94.961 17.833 130.626 53.499 35.666 35.665 53.499 79.207 53.499 130.626s-17.833 94.961-53.499 130.627c-35.665 35.665-79.207 53.497-130.626 53.497s-94.961-17.832-130.627-53.497c-35.664-35.665-53.496-79.207-53.496-130.627s17.832-94.961 53.496-130.626c35.665-35.666 79.207-53.499 130.627-53.499z" />
<glyph unicode="&#xe91a;" glyph-name="shop" d="M287.938 57.272c-18.447 0-34.043 6.446-46.788 19.343s-19.118 28.57-19.118 47.017c0 18.447 6.448 34.043 19.344 46.787 12.897 12.744 28.569 19.118 47.016 19.118s34.043-6.446 46.788-19.343c12.745-12.897 19.118-28.57 19.118-47.017s-6.448-34.043-19.345-46.787c-12.896-12.744-28.568-19.118-47.014-19.118zM735.611 57.272c-18.447 0-34.043 6.446-46.792 19.343-12.744 12.897-19.118 28.57-19.118 47.017s6.451 34.043 19.348 46.787c12.892 12.744 28.564 19.118 47.012 19.118s34.043-6.446 46.787-19.343c12.749-12.897 19.118-28.57 19.118-47.017s-6.446-34.043-19.343-46.787c-12.897-12.744-28.57-19.118-47.012-19.118zM264.123 689.066l94.277-217.929h313.272c2.463 0 4.649 0.615 6.564 1.846s3.553 2.94 4.925 5.129l84.593 199.466c1.638 3.009 1.777 5.676 0.41 8-1.367 2.326-3.692 3.488-6.973 3.488h-497.068zM240.902 744.531h571.074c11.049 0 19.092-4.048 24.125-12.143 5.033-8.096 5.632-16.684 1.802-25.764l-104.023-249.608c-5.315-12.411-13.373-22.405-24.177-29.983-10.803-7.572-23.071-11.361-36.803-11.361h-334.768l-47.262-81.725c-2.188-3.282-2.256-6.835-0.205-10.665s5.129-5.745 9.231-5.745h502.069v-55.465h-501.002c-27.022 0-46.796 11.075-59.323 33.229-12.526 22.154-12.143 44.278 1.149 66.381l58.75 100.923-141.375 328.862h-87.631v55.465h124.635l43.733-102.4z" />
<glyph unicode="&#xe91b;" glyph-name="chat" d="M900.265 79.427l-133.908 133.908h-574.027c-19.206 0-35.44 6.63-48.702 19.891-13.262 13.266-19.893 29.496-19.893 48.701v485.743c0 19.206 6.631 35.44 19.893 48.702s29.496 19.893 48.702 19.893h639.343c19.205 0 35.436-6.631 48.701-19.893 13.261-13.262 19.891-29.496 19.891-48.702v-688.244zM192.33 268.8h597l55.47-55.88v554.75c0 3.282-1.367 6.291-4.101 9.027-2.739 2.735-5.745 4.103-9.027 4.103h-639.343c-3.282 0-6.292-1.368-9.028-4.103s-4.102-5.745-4.102-9.027v-485.743c0-3.282 1.368-6.287 4.102-9.027 2.736-2.734 5.745-4.101 9.028-4.101z" />
<glyph unicode="&#xe91c;" glyph-name="pin-drop" d="M512 249.928c70.4 57.651 123.909 113.193 160.532 166.615 36.623 53.421 54.938 104.454 54.938 153.1 0 41.011-7.276 75.707-21.827 104.091s-32.701 51.205-54.441 68.466c-21.745 17.261-45.164 29.787-70.257 37.579-25.093 7.793-47.944 11.688-68.562 11.688-20.617 0-43.367-3.938-68.251-11.815-24.882-7.877-48.428-20.403-70.637-37.58s-40.588-39.955-55.138-68.338c-14.551-28.383-21.826-63.080-21.826-104.091 0-48.646 18.489-99.679 55.466-153.1 36.979-53.422 90.312-108.964 160.001-166.615zM512 179.528c-90.311 69.197-158.044 135.946-203.198 200.248-45.156 64.297-67.734 127.427-67.734 189.384 0 46.796 8.215 87.367 24.643 121.712s37.563 63.134 63.404 86.366c25.84 23.231 54.91 40.655 87.212 52.271 32.3 11.615 64.191 17.423 95.673 17.423s63.375-5.808 95.672-17.423c32.302-11.616 61.373-29.040 87.214-52.271s46.976-52.021 63.401-86.366c16.43-34.345 24.648-74.916 24.648-121.712 0-61.957-22.4-125.087-67.2-189.384-44.8-64.302-112.712-131.052-203.735-200.248zM512.225 509.866c18.447 0 34.043 6.448 46.792 19.344 12.744 12.896 19.118 28.567 19.118 47.014s-6.451 34.043-19.348 46.788c-12.892 12.745-28.564 19.118-47.012 19.118s-34.044-6.448-46.789-19.344c-12.745-12.896-19.118-28.568-19.118-47.014s6.448-34.043 19.344-46.788c12.896-12.745 28.568-19.118 47.013-19.118zM241.068 49.065v55.465h541.867v-55.465h-541.867z" />
<glyph unicode="&#xe91d;" glyph-name="event" d="M622.848 192c-26.143 0-48.42 9.124-66.826 27.366-18.406 18.248-27.612 40.443-27.612 66.586s9.124 48.42 27.372 66.826c18.248 18.406 40.443 27.607 66.586 27.607s48.415-9.119 66.826-27.366c18.406-18.248 27.607-40.443 27.607-66.586s-9.124-48.42-27.372-66.826c-18.243-18.406-40.438-27.607-66.58-27.607zM243.53 59.735c-19.206 0-35.44 6.753-48.702 20.265s-19.893 29.619-19.893 48.328v536.942c0 18.708 6.631 34.818 19.893 48.328s29.496 20.267 48.702 20.267h93.211v107.322h57.106v-107.322h237.946v107.322h55.465v-107.322h93.215c19.205 0 35.436-6.756 48.701-20.267 13.261-13.511 19.891-29.62 19.891-48.328v-536.942c0-18.708-6.63-34.816-19.891-48.328-13.266-13.512-29.496-20.265-48.701-20.265h-536.943zM243.53 115.2h536.943c3.282 0 6.287 1.367 9.027 4.101 2.734 2.734 4.101 5.745 4.101 9.027v357.742h-563.2v-357.742c0-3.282 1.368-6.292 4.102-9.027 2.736-2.734 5.745-4.101 9.028-4.101zM230.4 541.535h563.2v123.735c0 3.282-1.367 6.291-4.101 9.027-2.739 2.735-5.745 4.102-9.027 4.102h-536.943c-3.282 0-6.292-1.367-9.028-4.102-2.735-2.736-4.102-5.745-4.102-9.027v-123.735z" />
<glyph unicode="&#xe91e;" glyph-name="hub" d="M174.935 110.935v183.465h156.471l152.862 167.795v90.502c-25.764 7.877-47.139 22.194-64.123 42.954s-25.477 44.513-25.477 71.261c0 32.547 11.419 60.239 34.256 83.077s50.529 34.256 83.076 34.256c32.548 0 60.237-11.419 83.077-34.256 22.835-22.837 34.253-50.53 34.253-83.077 0-26.912-8.489-50.707-25.472-71.384-16.988-20.677-38.359-34.954-64.128-42.83v-90.502l152.863-167.795h156.472v-183.465h-183.465v131.528l-153.6 168.535-153.6-168.852v-131.21h-183.465z" />
<glyph unicode="&#xe91f;" glyph-name="close" d="M353.148 250.179l-38.973 38.973 157.786 158.852-157.786 157.786 38.973 38.973 158.852-157.786 157.788 157.786 38.968-38.973-157.783-157.786 157.783-158.852-38.968-38.973-157.788 157.788-158.852-157.788z" />
<glyph unicode="&#xe920;" glyph-name="industry-crane-technology" d="M917.333 106.667v746.667c0 17.067-14.933 32-32 32h-746.667c-17.067 0-32-14.933-32-32v-746.667h-42.667v-64h149.333v64h-42.667v714.667h309.333v-96h-74.667c-17.067 0-32-14.933-32-32s12.8-29.867 29.867-32l-61.867-61.867c-10.667-10.667-12.8-25.6-6.4-36.267l64-128c6.4-10.667 17.067-17.067 27.733-17.067 4.267 0 10.667 2.133 14.933 4.267 14.933 8.533 21.333 27.733 14.933 42.667l-53.333 106.667 89.6 89.6c0 0 0 0 0 2.133h38.4c0 0 0 0 0-2.133l89.6-89.6-53.333-106.667c-8.533-14.933-2.133-34.133 14.933-42.667 4.267-2.133 8.533-4.267 14.933-4.267 12.8 0 23.467 6.4 27.733 17.067l64 128c6.4 12.8 4.267 27.733-6.4 36.267l-61.867 61.867c17.067 2.133 29.867 14.933 29.867 32s-14.933 32-32 32h-74.667v96h309.333v-714.667h-42.667v-64h149.333v64h-42.667z" />
<glyph unicode="&#xe921;" glyph-name="industry-amusement-rides" d="M272.022 46.952l51.34 115.804c-11.813 8.359-22.768 16.726-32.863 25.095s-20.078 17.758-29.951 28.165c-5.018-2.545-10.39-4.408-16.117-5.59-5.728-1.184-11.172-1.776-16.331-1.776-21.009 0-38.944 7.433-53.807 22.293-14.862 14.863-22.293 32.8-22.293 53.807 0 12.54 2.89 24.344 8.672 35.408 5.781 11.067 13.332 19.721 22.654 25.965-5.088 16.524-8.992 33.198-11.715 50.016-2.722 16.821-4.083 34.249-4.083 52.286 0 18.322 1.29 35.823 3.869 52.499 2.579 16.679 6.556 33.367 11.928 50.071-9.321 6.813-16.873 15.567-22.654 26.257-5.781 10.692-8.672 22.396-8.672 35.116 0 20.83 7.431 38.722 22.293 53.673 14.862 14.953 32.798 22.428 53.807 22.428 5.159 0 10.531-0.637 16.117-1.908s10.886-3.089 15.904-5.457c23.462 24.976 49.617 45.9 78.463 62.773 28.844 16.873 60.521 29.391 95.032 37.557 2.935 19.959 11.619 36.218 26.055 48.776s31.117 18.839 50.046 18.839c18.749 0 35.458-6.253 50.124-18.759s23.325-28.524 25.977-48.056c34.866-8.165 67.307-20.248 97.327-36.25 30.018-16.001 56.705-36.791 80.062-62.37 4.556 1.796 9.126 3.079 13.717 3.854 4.588 0.774 9.248 1.161 13.981 1.161 21.009 0 38.944-7.43 53.807-22.293 14.86-14.863 22.293-32.798 22.293-53.807 0-13.29-2.9-25.18-8.699-35.675s-13.29-18.919-22.468-25.27c5.55-16.951 9.571-33.802 12.061-50.551s3.736-34.284 3.736-52.606c0-18.037-1.246-35.555-3.736-52.554-2.49-16.996-6.511-33.757-12.061-50.283 9.945-7.098 17.49-16.134 22.64-27.111 5.15-10.974 7.725-22.218 7.725-33.727 0-21.007-7.43-38.944-22.293-53.807-14.863-14.86-32.798-22.293-53.807-22.293-5.015 0-10.218 0.569-15.607 1.708-5.392 1.139-10.452 2.757-15.185 4.855-9.588-10.407-19.376-19.936-29.364-28.59-9.99-8.657-20.997-16.931-33.020-24.831l49.684-114.843h-50.805l-40.718 91.148c-11.813-4.963-23.267-9.321-34.369-13.075-11.099-3.754-22.735-7.223-34.901-10.405-2.937-20.103-11.666-36.22-26.192-48.353-14.523-12.131-31.16-18.197-49.909-18.197-18.929 0-35.61 6.164-50.046 18.492s-23.12 28.615-26.055 48.857c-12.488 3.184-24.346 6.654-35.57 10.407-11.224 3.751-22.228 8.342-33.008 13.769l-42.638-92.645h-50.378zM341.452 206.036l77.969 171.575c-8.557 9.873-14.955 20.697-19.196 32.473-4.243 11.776-6.366 24.414-6.366 37.915 0 31.594 11.671 58.8 35.008 81.623 23.34 22.823 50.805 34.234 82.397 34.234 31.594 0 58.498-11.411 80.716-34.234s33.327-50.029 33.327-81.623c0-13.502-2.175-26.234-6.524-38.198-4.351-11.961-10.927-23.013-19.733-33.153l77.702-171.415c8.594 5.817 16.976 12.163 25.15 19.039s15.944 14.386 23.31 22.535c-3.504 5.247-6.249 11.104-8.232 17.57s-2.975 13.257-2.975 20.373c0 20.423 7.528 38.135 22.585 53.141s33.287 22.391 54.689 22.158c4.623 13.876 8.182 28.158 10.672 42.841 2.49 14.686 3.736 29.863 3.736 45.536 0 16.134-1.246 31.499-3.736 46.095s-5.817 28.832-9.98 42.708c-20.83-0.979-38.9 6.034-54.207 21.039-15.308 15.003-22.96 33.090-22.96 54.26 0 7.046 1.059 13.657 3.174 19.838 2.118 6.184 4.795 12.183 8.032 18-20.972 21.489-43.845 39.282-68.615 53.379s-51.887 25.105-81.343 33.021c-5.445-11.278-14.014-20.75-25.71-28.418s-25.238-11.5-40.625-11.5c-15.387 0-28.904 3.833-40.548 11.5-11.641 7.668-20.238 17.14-25.787 28.418-29.921-7.916-57.436-18.914-82.544-32.994-25.11-14.080-47.723-32.309-67.844-54.687 3.701-5.817 6.494-11.746 8.379-17.785s2.827-12.35 2.827-18.932c0-22.645-7.947-41-23.842-55.061s-33.652-20.897-53.273-20.505c-4.447-13.699-7.827-27.818-10.139-42.361-2.313-14.541-3.469-29.881-3.469-46.015 0-15.672 1.156-30.85 3.469-45.536 2.312-14.683 5.692-28.964 10.139-42.841 20.866 0.232 38.934-7.043 54.207-21.826 15.273-14.781 22.908-32.606 22.908-53.473 0-7.4-0.919-14.101-2.762-20.105-1.841-6.004-4.513-11.399-8.017-16.184 7.365-8.147 14.99-15.597 22.88-22.348s16.274-13.444 25.15-20.078zM381.742 182.18c9.161-4.268 18.869-8.292 29.127-12.073 10.255-3.779 21.092-7.031 32.513-9.753 6.296 11.564 15.080 21.107 26.349 28.632s24.598 11.286 39.986 11.286c15.387 0 28.929-3.761 40.625-11.286s20.265-17.068 25.71-28.632c11.259 2.722 21.781 5.769 31.564 9.139 9.785 3.372 19.026 7.193 27.725 11.461l-72.687 165.866c-8.057-4.768-16.584-8.404-25.575-10.914-8.994-2.508-18.347-3.761-28.058-3.761-9.678 0-19.181 1.361-28.512 4.081-9.331 2.722-18.025 6.806-26.082 12.251l-72.687-166.295zM509.717 384.44c17.218 0 32.074 6.084 44.561 18.252s18.732 27.271 18.732 45.308c0 17.398-6.244 32.341-18.732 44.829s-27.343 18.732-44.561 18.732c-18.040 0-33.143-6.244-45.308-18.732-12.168-12.488-18.252-27.431-18.252-44.829 0-18.037 6.084-33.14 18.252-45.308 12.166-12.168 27.268-18.252 45.308-18.252z" />
<glyph unicode="&#xe922;" glyph-name="industry-general-industry" d="M417.482 50.688l-15.596 124.772c-10.975 3.674-22.226 8.823-33.753 15.438s-21.833 13.705-30.918 21.266l-115.554-48.837-94.521 163.84 99.958 75.538c-0.945 6.091-1.615 12.21-2.009 18.354s-0.591 12.259-0.591 18.354c0 5.829 0.197 11.747 0.591 17.76s1.064 12.591 2.009 19.735l-99.958 75.538 94.521 163.050 115.16-48.443c9.873 7.825 20.415 14.98 31.626 21.465 11.212 6.486 22.227 11.698 33.044 15.636l15.991 124.77h189.042l15.598-125.164c12.288-4.463 23.409-9.675 33.358-15.636 9.953-5.96 19.997-12.984 30.13-21.072l116.736 48.443 94.523-163.050-101.536-76.722c1.47-6.615 2.273-12.8 2.404-18.551 0.131-5.747 0.197-11.538 0.197-17.367 0-5.566-0.131-11.227-0.393-16.974-0.262-5.751-1.208-12.329-2.839-19.735l100.749-75.932-94.523-163.84-115.319 49.234c-10.134-8.090-20.48-15.245-31.035-21.467s-21.373-11.305-32.453-15.241l-15.598-125.166h-189.042zM471.044 112.128h80.499l14.733 109.724c20.898 5.464 40.002 13.222 57.303 23.278s33.989 22.987 50.057 38.793l101.769-42.77 40.329 69.632-88.85 66.953c3.416 10.609 5.738 21.004 6.971 31.191 1.233 10.191 1.851 20.48 1.851 30.88 0 10.658-0.618 20.951-1.851 30.876s-3.555 20.062-6.971 30.405l89.641 67.743-40.329 69.632-102.953-43.402c-13.705 14.651-30.13 27.596-49.271 38.833s-38.506 19.194-58.094 23.867l-12.915 109.726h-81.293l-13.545-109.332c-20.902-4.936-40.199-12.498-57.896-22.686s-34.579-23.316-50.648-39.385l-101.77 42.378-40.33-69.632 88.458-65.929c-3.413-9.716-5.802-19.825-7.168-30.327s-2.048-21.557-2.048-33.161c0-10.662 0.683-21.111 2.048-31.351s3.623-20.349 6.774-30.327l-88.064-66.953 40.33-69.632 101.376 43.008c15.544-15.966 32.164-29.041 49.861-39.227s37.258-18.014 58.685-23.474l13.312-109.33zM512.475 316.928c34.079 0 63.082 11.96 86.999 35.881 23.921 23.917 35.881 52.92 35.881 86.999s-11.96 63.078-35.881 86.999c-23.917 23.92-52.92 35.879-86.999 35.879-34.501 0-63.607-11.96-87.314-35.879-23.709-23.921-35.564-52.92-35.564-86.999s11.854-63.082 35.564-86.999c23.708-23.921 52.814-35.881 87.314-35.881z" />
<glyph unicode="&#xe923;" glyph-name="industry-people-mover" d="M217.091 304.325v381.243c0 31.454 8.533 56.621 25.6 75.5s39.844 33.293 68.332 43.244c28.488 9.951 61.243 16.542 98.264 19.771 37.020 3.23 75.355 4.844 115.004 4.844 42.43 0 82.297-1.615 119.607-4.844s69.894-9.82 97.755-19.771c27.857-9.95 49.795-24.365 65.81-43.244s24.023-44.045 24.023-75.5v-381.243c0-36.602-12.64-67.543-37.925-92.828s-56.23-37.929-92.832-37.929l61.44-61.44v-20.48h-58.286l-81.92 81.92h-195.351l-81.92-81.92h-58.287v20.48l61.44 61.44c-36.601 0-67.544 12.644-92.829 37.929s-37.928 56.226-37.928 92.828zM524.292 767.488c-76.304 0-131.967-4.792-166.994-14.376-35.025-9.583-57.501-22.12-67.426-37.612h471.357c-8.667 16.332-30.618 29.080-65.851 38.243-35.238 9.164-92.266 13.745-171.086 13.745zM278.53 501.248h215.042v152.812h-215.042v-152.812zM700.731 439.808v0zM555.008 501.248h215.044v152.812h-215.044v-152.812zM380.93 283.845c15.386 0 28.16 5.079 38.32 15.241 10.162 10.162 15.241 22.938 15.241 38.322s-5.079 28.16-15.241 38.322c-10.16 10.158-22.934 15.241-38.32 15.241s-28.16-5.083-38.321-15.241c-10.161-10.162-15.241-22.938-15.241-38.322s5.080-28.16 15.241-38.322c10.161-10.162 22.935-15.241 38.321-15.241zM667.652 283.845c15.385 0 28.156 5.079 38.318 15.241s15.241 22.938 15.241 38.322c0 15.385-5.079 28.16-15.241 38.322-10.162 10.158-22.934 15.241-38.318 15.241-15.389 0-28.16-5.083-38.322-15.241-10.162-10.162-15.241-22.938-15.241-38.322s5.079-28.16 15.241-38.322c10.162-10.162 22.934-15.241 38.322-15.241zM347.848 235.008h352.884c19.587 0 36.041 6.656 49.353 19.968s19.968 29.762 19.968 49.349v135.483h-491.522v-135.483c0-19.587 6.656-36.037 19.968-49.349s29.762-19.968 49.35-19.968zM524.292 715.499v0z" />
<glyph unicode="&#xe924;" glyph-name="industry-port-technology" d="M202.125 174.359l-68.372 245.285c-1.785 7.401-1.063 15.778 2.167 25.125s9.806 15.675 19.73 18.985l53.248 18.432v182.901c0 20.69 7.168 38.203 21.504 52.539s31.849 21.504 52.539 21.504h130.758v122.88h204.796v-122.88h130.757c20.689 0 38.203-7.168 52.539-21.504s21.504-31.849 21.504-52.539v-182.901l53.248-18.432c11.71-4.411 19.063-11.121 22.057-20.128 2.99-9.003 3.465-16.998 1.417-23.982l-69.947-245.285c-29.405 3.936-56.070 13.73-79.991 29.381-23.917 15.647-47.301 36.311-70.144 61.989-22.053-25.416-46.486-47.129-73.294-65.143-26.808-18.010-56.988-27.017-90.546-27.017-33.554 0-63.738 9.007-90.542 27.017-26.809 18.014-51.241 39.727-73.296 65.143-22.581-25.678-45.896-46.342-69.947-61.989-24.051-15.651-50.78-25.444-80.186-29.381zM116.738 9.728v61.44h71.679c28.672 0 57.002 4.436 84.992 13.312s54.272 22.188 78.848 39.936c24.576-17.748 50.858-30.72 78.846-38.912 27.992-8.192 56.32-12.288 84.992-12.288s57.004 4.096 84.992 12.288c27.992 8.192 54.272 21.164 78.848 38.912 24.576-17.748 50.86-31.060 78.848-39.936 27.992-8.876 56.32-13.312 84.992-13.312h71.68v-61.44h-71.68c-28.672 0-56.66 3.416-83.968 10.24-27.304 6.828-53.928 17.068-79.872 30.72-25.94-13.652-52.736-23.892-80.384-30.72s-55.464-10.24-83.456-10.24c-27.988 0-55.808 3.412-83.456 10.24-27.646 6.828-54.441 17.068-80.382 30.72-25.942-13.652-52.566-23.892-79.872-30.72s-55.296-10.24-83.968-10.24h-71.679zM270.338 502.505l245.758 79.874 245.76-79.874v162.582c0 3.676-1.18 6.696-3.543 9.058s-5.382 3.545-9.060 3.545h-466.311c-3.676 0-6.696-1.182-9.059-3.545s-3.545-5.382-3.545-9.058v-162.582zM516.096 235.008c32.088 0 59.093 11.198 81.015 33.595 21.926 22.397 49.533 52.838 82.825 91.333 32.506-36.864 54.628-61.993 66.363-75.383 11.739-13.39 25.797-24.867 42.181-34.423l45.056 163.054-317.44 104.448-318.699-104.448 46.317-161.792c16.384 9.556 30.444 20.48 42.181 32.768s33.858 37.548 66.363 75.776c34.133-38.912 61.95-69.46 83.454-91.648s48.3-33.28 80.384-33.28z" />
<glyph unicode="&#xe925;" glyph-name="industry-automotive" d="M239.591 170.667v-53.333c0-9.067-3.067-16.666-9.2-22.801-6.132-6.131-13.732-9.199-22.799-9.199h-26.255c-9.067 0-16.666 3.068-22.8 9.199-6.133 6.135-9.2 13.734-9.2 22.801v327.386l87.139 248.613c3.172 9.791 8.998 17.572 17.476 23.343s17.914 8.657 28.307 8.657h461.126c9.988 0 19.051-2.933 27.196-8.8s13.794-13.6 16.947-23.2l87.138-248.613v-327.386c0-9.067-3.063-16.666-9.199-22.801-6.131-6.131-13.734-9.199-22.801-9.199h-26.253c-9.067 0-16.666 3.068-22.801 9.199-6.131 6.135-9.199 13.734-9.199 22.801v53.333h-544.823zM239.264 508.715h545.479l-53.828 152.618h-437.824l-53.826-152.618zM318.458 283.895c15.525 0 28.689 5.436 39.492 16.303s16.206 24.064 16.206 39.59c0 15.526-5.434 28.689-16.302 39.492s-24.064 16.205-39.59 16.205c-15.525 0-28.689-5.431-39.493-16.303-10.803-10.867-16.205-24.064-16.205-39.586 0-15.526 5.434-28.689 16.302-39.497 10.868-10.803 24.064-16.205 39.59-16.205zM705.741 283.895c15.526 0 28.689 5.436 39.492 16.303s16.205 24.064 16.205 39.59c0 15.526-5.431 28.689-16.303 39.492-10.867 10.803-24.064 16.205-39.586 16.205-15.526 0-28.689-5.431-39.492-16.303-10.803-10.867-16.209-24.064-16.209-39.586 0-15.526 5.436-28.689 16.303-39.497 10.867-10.803 24.064-16.205 39.59-16.205zM213.336 234.667h597.335v210.052h-597.335v-210.052z" />
<glyph unicode="&#xe926;" glyph-name="industry-intralogistics" d="M153.29 88.027v122.88h742.002v-122.88h-97.673v61.44h-224.494v-61.44h-97.669v61.44h-224.494v-61.44h-97.672zM295.467 292.827c-10.49 0-19.283 3.547-26.378 10.641s-10.643 15.888-10.643 26.378v458.435c0 10.489 3.548 19.282 10.643 26.377s15.888 10.643 26.378 10.643h457.644c10.49 0 19.284-3.548 26.378-10.643 7.098-7.096 10.646-15.888 10.646-26.377v-455.285c0-11.379-3.777-20.922-11.325-28.623-7.545-7.696-16.9-11.547-28.062-11.547h-455.281zM319.884 354.263h408.811v409.602h-408.811v-409.602zM401.41 608.69h245.758v61.438h-245.758v-61.438z" />
<glyph unicode="&#xe927;" glyph-name="industry-crane-technology-2" d="M203.542 110.871v94.519h125.401l-105.235 344.38c-18.17 9.452-32.9 23.158-44.19 41.118s-16.936 37.809-16.936 59.548c0 31.245 10.963 57.829 32.887 79.753s48.509 32.886 79.753 32.886c25.836 0 48.443-7.68 67.82-23.040s32.637-34.987 39.778-58.88h140.526v51.201c0 8.717 2.941 16.016 8.823 21.897 5.878 5.881 13.177 8.822 21.897 8.822 5.353 0 10.342-1.366 14.963-4.096 4.624-2.731 8.192-6.564 10.715-11.5v-5.514l71.995 67.111c5.878 5.882 12.694 9.545 20.439 10.989s15.319 0.249 22.725-3.584l157.381-72.941c6.615-3.308 11.33-8.1 14.139-14.375s2.769-12.511-0.119-18.707c-3.31-6.617-8.098-10.857-14.373-12.721s-12.513-1.352-18.711 1.536l-151.392 69.947-97.047-90.112v-57.344l97.047-88.064 151.392 69.947c6.197 2.888 12.538 3.295 19.022 1.221 6.488-2.074 11.174-6.209 14.062-12.406 3.31-6.617 3.453-12.957 0.434-19.022s-7.84-10.752-14.455-14.061l-157.381-74.201c-7.406-3.834-14.979-4.964-22.725-3.387s-14.561 5.173-20.439 10.793l-71.995 66.323v-5.514c-2.523-4.096-6.091-7.72-10.715-10.871-4.62-3.151-9.609-4.726-14.963-4.726-8.72 0-16.019 2.941-21.897 8.822-5.882 5.881-8.823 13.181-8.823 21.897v51.201h-140.526c-2.048-7.3-4.857-14.389-8.428-21.268s-7.798-13.181-12.682-18.905l201.651-374.154h152.183v-94.519h-512.001zM275.222 599.235c14.231 0 26.322 4.976 36.273 14.928s14.927 22.042 14.927 36.273c0 14.232-4.975 26.323-14.927 36.274s-22.042 14.927-36.273 14.927c-14.232 0-26.323-4.976-36.274-14.927s-14.927-22.043-14.927-36.274c0-14.231 4.975-26.322 14.927-36.273s22.043-14.928 36.274-14.928zM392.429 205.39h100.353l-180.854 336.346c-2.1-1.313-5.409-2.429-9.925-3.348s-8.35-1.116-11.501-0.591l101.927-332.408z" />
<glyph unicode="&#xe928;" glyph-name="open-in" d="M174.935 110.935v285.865h55.465v-191.181l523.981 523.981h-191.181v55.465h285.865v-285.865h-55.465v191.181l-523.981-523.981h191.181v-55.465h-285.865z" />
<glyph unicode="&#xe929;" glyph-name="user" d="M512 461.568c-41.065 0-75.354 13.755-102.866 41.267s-41.27 61.847-41.27 103.004c0 41.157 13.757 75.446 41.27 102.867s61.801 41.131 102.866 41.131c41.068 0 75.356-13.71 102.868-41.131s41.267-61.71 41.267-102.867c0-41.157-13.755-75.492-41.267-103.004s-61.801-41.267-102.868-41.267zM192.002 136.207v85.604c0 22.246 5.939 42.007 17.819 59.282 11.879 17.277 27.455 30.556 46.728 39.836 43.999 20.204 87.040 35.4 129.126 45.594 42.086 10.191 84.193 15.288 126.318 15.288s84.16-5.169 126.106-15.508c41.948-10.337 84.859-25.528 128.74-45.568 19.776-9.265 35.581-22.505 47.414-39.726 11.832-17.219 17.748-36.951 17.748-59.197v-85.604h-639.998zM245.607 189.811h532.787v32c0 10.286-3.177 20.045-9.531 29.279-6.354 9.236-14.738 16.563-25.149 21.978-40.225 19.638-79.101 33.736-116.631 42.296s-75.891 12.841-115.082 12.841c-39.191 0-77.742-4.28-115.656-12.841s-76.744-22.659-116.495-42.296c-10.409-5.414-18.721-12.741-24.929-21.978-6.209-9.234-9.313-18.993-9.313-29.279v-32zM512 515.172c25.582 0 47.066 8.694 64.451 26.079 17.388 17.385 26.081 38.868 26.081 64.451s-8.694 47.066-26.081 64.453c-17.385 17.385-38.868 26.076-64.451 26.076s-47.066-8.691-64.451-26.076c-17.385-17.388-26.079-38.871-26.079-64.453s8.694-47.066 26.079-64.451c17.385-17.385 38.868-26.079 64.451-26.079z" />
<glyph unicode="&#xe92a;" glyph-name="check-solid" d="M451.447 266.505l286.848 286.849-44.962 44.963-241.886-241.888-121.602 121.6-44.963-44.962 166.565-166.562zM512.068 42.667c-56.060 0-108.754 10.641-158.082 31.915-49.329 21.278-92.238 50.15-128.727 86.626-36.49 36.471-65.378 79.364-86.663 128.67s-31.929 101.99-31.929 158.050c0 56.064 10.638 108.757 31.915 158.085s50.151 92.238 86.624 128.727c36.474 36.49 79.364 65.378 128.671 86.663s101.991 31.929 158.051 31.929 108.757-10.638 158.084-31.915c49.331-21.277 92.237-50.151 128.73-86.624 36.489-36.474 65.374-79.364 86.66-128.671s31.932-101.99 31.932-158.050c0-56.064-10.641-108.757-31.915-158.084-21.278-49.331-50.155-92.241-86.626-128.73s-79.364-65.378-128.67-86.665c-49.306-21.282-101.99-31.927-158.054-31.927z" />
<glyph unicode="&#xe92b;" glyph-name="play" horiz-adv-x="975" d="M400.255 296.087l239.277 151.913-239.277 151.91v-303.823zM487.965 78.224c-50.867 0-98.776 9.621-143.723 28.872-44.949 19.246-84.291 45.729-118.026 79.448-33.736 33.724-60.233 73.031-79.489 117.931s-28.884 92.872-28.884 143.921c0 51.052 9.624 98.881 28.871 143.49s45.731 83.782 79.452 117.518c33.721 33.736 73.031 60.233 117.929 79.489s92.873 28.884 143.92 28.884c51.054 0 98.879-9.624 143.492-28.871 44.607-19.247 83.783-45.731 117.516-79.452 33.738-33.721 60.236-72.951 79.492-117.692s28.882-92.545 28.882-143.416c0-50.868-9.621-98.777-28.872-143.726-19.246-44.944-45.729-84.29-79.448-118.023-33.724-33.738-72.953-60.236-117.697-79.492-44.739-19.256-92.54-28.882-143.414-28.882zM487.619 131.048c88.044 0 162.879 30.813 224.51 92.443s92.443 136.465 92.443 224.51c0 88.043-30.813 162.878-92.443 224.508s-136.465 92.444-224.51 92.444c-88.043 0-162.878-30.815-224.508-92.444s-92.444-136.466-92.444-224.508c0-88.044 30.815-162.879 92.444-224.51s136.466-92.443 224.508-92.443z" />
</font>
</defs>
</svg>
